  0
SECTION
  2
HEADER
  9
$ACADVER
  1
AC1018
  9
$ACADMAINTVER
 70
   104
  9
$DWGCODEPAGE
  3
ANSI_932
  9
$LASTSAVEDBY
  1
CPTIO008
  9
$INSBASE
 10
0.0
 20
0.0
 30
0.0
  9
$EXTMIN
 10
-138.0163109423782
 20
-94.50959923785649
 30
-0.000000000000013
  9
$EXTMAX
 10
138.51780768614
 20
95.00558161388836
 30
0.0000000000000023
  9
$LIMMIN
 10
-148.0
 20
-104.5
  9
$LIMMAX
 10
149.0
 20
243.2062403238793
  9
$ORTHOMODE
 70
     0
  9
$REGENMODE
 70
     1
  9
$FILLMODE
 70
     1
  9
$QTEXTMODE
 70
     0
  9
$MIRRTEXT
 70
     1
  9
$LTSCALE
 40
0.3
  9
$ATTMODE
 70
     1
  9
$TEXTSIZE
 40
2.5
  9
$TRACEWID
 40
1.0
  9
$TEXTSTYLE
  7
Standard
  9
$CLAYER
  8
0
  9
$CELTYPE
  6
ByLayer
  9
$CECOLOR
 62
   256
  9
$CELTSCALE
 40
1.0
  9
$DISPSILH
 70
     0
  9
$DIMSCALE
 40
1.0
  9
$DIMASZ
 40
2.5
  9
$DIMEXO
 40
0.625
  9
$DIMDLI
 40
3.75
  9
$DIMRND
 40
0.0
  9
$DIMDLE
 40
0.0
  9
$DIMEXE
 40
1.25
  9
$DIMTP
 40
0.0
  9
$DIMTM
 40
0.0
  9
$DIMTXT
 40
2.5
  9
$DIMCEN
 40
2.5
  9
$DIMTSZ
 40
0.0
  9
$DIMTOL
 70
     0
  9
$DIMLIM
 70
     0
  9
$DIMTIH
 70
     0
  9
$DIMTOH
 70
     0
  9
$DIMSE1
 70
     0
  9
$DIMSE2
 70
     0
  9
$DIMTAD
 70
     1
  9
$DIMZIN
 70
     8
  9
$DIMBLK
  1

  9
$DIMASO
 70
     1
  9
$DIMSHO
 70
     1
  9
$DIMPOST
  1

  9
$DIMAPOST
  1

  9
$DIMALT
 70
     0
  9
$DIMALTD
 70
     3
  9
$DIMALTF
 40
0.03937007874016
  9
$DIMLFAC
 40
1.0
  9
$DIMTOFL
 70
     1
  9
$DIMTVP
 40
0.0
  9
$DIMTIX
 70
     0
  9
$DIMSOXD
 70
     0
  9
$DIMSAH
 70
     0
  9
$DIMBLK1
  1

  9
$DIMBLK2
  1

  9
$DIMSTYLE
  2
ISO-25
  9
$DIMCLRD
 70
     0
  9
$DIMCLRE
 70
     0
  9
$DIMCLRT
 70
     0
  9
$DIMTFAC
 40
1.0
  9
$DIMGAP
 40
0.625
  9
$DIMJUST
 70
     0
  9
$DIMSD1
 70
     0
  9
$DIMSD2
 70
     0
  9
$DIMTOLJ
 70
     0
  9
$DIMTZIN
 70
     8
  9
$DIMALTZ
 70
     0
  9
$DIMALTTZ
 70
     0
  9
$DIMUPT
 70
     0
  9
$DIMDEC
 70
     2
  9
$DIMTDEC
 70
     2
  9
$DIMALTU
 70
     2
  9
$DIMALTTD
 70
     3
  9
$DIMTXSTY
  7
Standard
  9
$DIMAUNIT
 70
     0
  9
$DIMADEC
 70
     0
  9
$DIMALTRND
 40
0.0
  9
$DIMAZIN
 70
     0
  9
$DIMDSEP
 70
    44
  9
$DIMATFIT
 70
     3
  9
$DIMFRAC
 70
     0
  9
$DIMLDRBLK
  1

  9
$DIMLUNIT
 70
     2
  9
$DIMLWD
 70
    -2
  9
$DIMLWE
 70
    -2
  9
$DIMTMOVE
 70
     0
  9
$LUNITS
 70
     2
  9
$LUPREC
 70
     4
  9
$SKETCHINC
 40
1.0
  9
$FILLETRAD
 40
10.0
  9
$AUNITS
 70
     0
  9
$AUPREC
 70
     0
  9
$MENU
  1
.
  9
$ELEVATION
 40
0.0
  9
$PELEVATION
 40
0.0
  9
$THICKNESS
 40
0.0
  9
$LIMCHECK
 70
     0
  9
$CHAMFERA
 40
10.0
  9
$CHAMFERB
 40
10.0
  9
$CHAMFERC
 40
20.0
  9
$CHAMFERD
 40
0.0
  9
$SKPOLY
 70
     0
  9
$TDCREATE
 40
2455511.790041412
  9
$TDUCREATE
 40
2455511.415041412
  9
$TDUPDATE
 40
2457459.445559618
  9
$TDUUPDATE
 40
2457459.070559618
  9
$TDINDWG
 40
0.0436753935
  9
$TDUSRTIMER
 40
0.0436701620
  9
$USRTIMER
 70
     1
  9
$ANGBASE
 50
0.0
  9
$ANGDIR
 70
     0
  9
$PDMODE
 70
     0
  9
$PDSIZE
 40
0.0
  9
$PLINEWID
 40
0.0
  9
$SPLFRAME
 70
     0
  9
$SPLINETYPE
 70
     6
  9
$SPLINESEGS
 70
     8
  9
$HANDSEED
  5
B24
  9
$SURFTAB1
 70
     6
  9
$SURFTAB2
 70
     6
  9
$SURFTYPE
 70
     6
  9
$SURFU
 70
     6
  9
$SURFV
 70
     6
  9
$UCSBASE
  2

  9
$UCSNAME
  2

  9
$UCSORG
 10
0.0
 20
0.0
 30
0.0
  9
$UCSXDIR
 10
1.0
 20
0.0
 30
0.0
  9
$UCSYDIR
 10
0.0
 20
1.0
 30
0.0
  9
$UCSORTHOREF
  2

  9
$UCSORTHOVIEW
 70
     0
  9
$UCSORGTOP
 10
0.0
 20
0.0
 30
0.0
  9
$UCSORGBOTTOM
 10
0.0
 20
0.0
 30
0.0
  9
$UCSORGLEFT
 10
0.0
 20
0.0
 30
0.0
  9
$UCSORGRIGHT
 10
0.0
 20
0.0
 30
0.0
  9
$UCSORGFRONT
 10
0.0
 20
0.0
 30
0.0
  9
$UCSORGBACK
 10
0.0
 20
0.0
 30
0.0
  9
$PUCSBASE
  2

  9
$PUCSNAME
  2

  9
$PUCSORG
 10
0.0
 20
0.0
 30
0.0
  9
$PUCSXDIR
 10
1.0
 20
0.0
 30
0.0
  9
$PUCSYDIR
 10
0.0
 20
1.0
 30
0.0
  9
$PUCSORTHOREF
  2

  9
$PUCSORTHOVIEW
 70
     0
  9
$PUCSORGTOP
 10
0.0
 20
0.0
 30
0.0
  9
$PUCSORGBOTTOM
 10
0.0
 20
0.0
 30
0.0
  9
$PUCSORGLEFT
 10
0.0
 20
0.0
 30
0.0
  9
$PUCSORGRIGHT
 10
0.0
 20
0.0
 30
0.0
  9
$PUCSORGFRONT
 10
0.0
 20
0.0
 30
0.0
  9
$PUCSORGBACK
 10
0.0
 20
0.0
 30
0.0
  9
$USERI1
 70
     0
  9
$USERI2
 70
     0
  9
$USERI3
 70
     0
  9
$USERI4
 70
     0
  9
$USERI5
 70
     0
  9
$USERR1
 40
0.0
  9
$USERR2
 40
0.0
  9
$USERR3
 40
0.0
  9
$USERR4
 40
0.0
  9
$USERR5
 40
0.0
  9
$WORLDVIEW
 70
     1
  9
$SHADEDGE
 70
     3
  9
$SHADEDIF
 70
    70
  9
$TILEMODE
 70
     1
  9
$MAXACTVP
 70
    64
  9
$PINSBASE
 10
0.0
 20
0.0
 30
0.0
  9
$PLIMCHECK
 70
     0
  9
$PEXTMIN
 10
1.000000000000000E+20
 20
1.000000000000000E+20
 30
1.000000000000000E+20
  9
$PEXTMAX
 10
-1.000000000000000E+20
 20
-1.000000000000000E+20
 30
-1.000000000000000E+20
  9
$PLIMMIN
 10
-148.0
 20
-104.5
  9
$PLIMMAX
 10
149.0
 20
243.2062403238793
  9
$UNITMODE
 70
     0
  9
$VISRETAIN
 70
     1
  9
$PLINEGEN
 70
     0
  9
$PSLTSCALE
 70
     1
  9
$TREEDEPTH
 70
  3020
  9
$CMLSTYLE
  2
Standard
  9
$CMLJUST
 70
     0
  9
$CMLSCALE
 40
20.0
  9
$PROXYGRAPHICS
 70
     1
  9
$MEASUREMENT
 70
     1
  9
$CELWEIGHT
370
    -1
  9
$ENDCAPS
280
     0
  9
$JOINSTYLE
280
     0
  9
$LWDISPLAY
290
     1
  9
$INSUNITS
 70
     4
  9
$HYPERLINKBASE
  1

  9
$STYLESHEET
  1
monochrome.ctb
  9
$XEDIT
290
     1
  9
$CEPSNTYPE
380
     0
  9
$PSTYLEMODE
290
     1
  9
$FINGERPRINTGUID
  2
{7D69E0E1-3044-4D23-A823-8C005A1003BC}
  9
$VERSIONGUID
  2
{A118F896-7EBB-45E6-8FA1-D66648A8D332}
  9
$EXTNAMES
290
     1
  9
$PSVPSCALE
 40
0.0
  9
$OLESTARTUP
290
     0
  9
$SORTENTS
280
   127
  9
$INDEXCTL
280
     0
  9
$HIDETEXT
280
     0
  9
$XCLIPFRAME
290
     0
  9
$HALOGAP
280
     0
  9
$OBSCOLOR
 70
   257
  9
$OBSLTYPE
280
     0
  9
$INTERSECTIONDISPLAY
280
     0
  9
$INTERSECTIONCOLOR
 70
   257
  9
$DIMASSOC
280
     1
  9
$PROJECTNAME
  1

  0
ENDSEC
  0
SECTION
  2
CLASSES
  0
CLASS
  1
ACDBDICTIONARYWDFLT
  2
AcDbDictionaryWithDefault
  3
ObjectDBX Classes
 90
        0
 91
        1
280
     0
281
     0
  0
CLASS
  1
TABLESTYLE
  2
AcDbTableStyle
  3
ObjectDBX Classes
 90
     4095
 91
        1
280
     0
281
     0
  0
CLASS
  1
DICTIONARYVAR
  2
AcDbDictionaryVar
  3
ObjectDBX Classes
 90
        0
 91
       11
280
     0
281
     0
  0
CLASS
  1
SORTENTSTABLE
  2
AcDbSortentsTable
  3
ObjectDBX Classes
 90
        0
 91
        2
280
     0
281
     0
  0
CLASS
  1
MATERIAL
  2
AcDbMaterial
  3
ObjectDBX Classes
 90
     1153
 91
        3
280
     0
281
     0
  0
CLASS
  1
VISUALSTYLE
  2
AcDbVisualStyle
  3
ObjectDBX Classes
 90
     4095
 91
       24
280
     0
281
     0
  0
CLASS
  1
SCALE
  2
AcDbScale
  3
ObjectDBX Classes
 90
     1153
 91
       17
280
     0
281
     0
  0
CLASS
  1
MLEADERSTYLE
  2
AcDbMLeaderStyle
  3
ACDB_MLEADERSTYLE_CLASS
 90
     4095
 91
        1
280
     0
281
     0
  0
CLASS
  1
ACDBSECTIONVIEWSTYLE
  2
AcDbSectionViewStyle
  3
ObjectDBX Classes
 90
     1025
 91
        1
280
     0
281
     0
  0
CLASS
  1
ACDBDETAILVIEWSTYLE
  2
AcDbDetailViewStyle
  3
ObjectDBX Classes
 90
     1025
 91
        1
280
     0
281
     0
  0
CLASS
  1
CELLSTYLEMAP
  2
AcDbCellStyleMap
  3
ObjectDBX Classes
 90
     1152
 91
        2
280
     0
281
     0
  0
CLASS
  1
PLOTSETTINGS
  2
AcDbPlotSettings
  3
ObjectDBX Classes
 90
        0
 91
        1
280
     0
281
     0
  0
ENDSEC
  0
SECTION
  2
TABLES
  0
TABLE
  2
VPORT
  5
8
330
0
100
AcDbSymbolTable
 70
     1
  0
VPORT
  5
87C
330
8
100
AcDbSymbolTableRecord
100
AcDbViewportTableRecord
  2
*Active
 70
     0
 10
0.0
 20
0.0
 11
1.0
 21
1.0
 12
-57.36235757391739
 22
60.43306117748262
 13
0.0
 23
0.0
 14
10.0
 24
10.0
 15
10.0
 25
10.0
 16
0.0
 26
0.0
 36
1.0
 17
0.0
 27
0.0
 37
0.0
 40
309.8135999245061
 41
2.047557840616966
 42
50.0
 43
0.0
 44
0.0
 50
0.0
 51
0.0
 71
     0
 72
   100
 73
     1
 74
     3
 75
     0
 76
     1
 77
     0
 78
     0
281
     0
 65
     1
110
0.0
120
0.0
130
0.0
111
1.0
121
0.0
131
0.0
112
0.0
122
1.0
132
0.0
 79
     0
146
0.0
1001
ACAD_NAV_VCDISPLAY
1070
     3
  0
ENDTAB
  0
TABLE
  2
LTYPE
  5
5
330
0
100
AcDbSymbolTable
 70
     9
  0
LTYPE
  5
14
330
5
100
AcDbSymbolTableRecord
100
AcDbLinetypeTableRecord
  2
ByBlock
 70
     0
  3

 72
    65
 73
     0
 40
0.0
  0
LTYPE
  5
15
330
5
100
AcDbSymbolTableRecord
100
AcDbLinetypeTableRecord
  2
ByLayer
 70
     0
  3

 72
    65
 73
     0
 40
0.0
  0
LTYPE
  5
16
330
5
100
AcDbSymbolTableRecord
100
AcDbLinetypeTableRecord
  2
Continuous
 70
     0
  3
Solid line
 72
    65
 73
     0
 40
0.0
  0
LTYPE
  5
2A
330
5
100
AcDbSymbolTableRecord
100
AcDbLinetypeTableRecord
  2
CONTINOUS
 70
     0
  3
______________________________
 72
    65
 73
     0
 40
0.0
  0
LTYPE
  5
2B
330
5
100
AcDbSymbolTableRecord
100
AcDbLinetypeTableRecord
  2
DASHED
 70
     0
  3
__ __ __ __ __ __ __ __ __ __ __ __ __ __ __ __
 72
    65
 73
     2
 40
4.5
 49
3.0
 74
     0
 49
-1.5
 74
     0
  0
LTYPE
  5
2C
330
5
100
AcDbSymbolTableRecord
100
AcDbLinetypeTableRecord
  2
PHANTOM
 70
     0
  3
______  __  __  ______  __  __  _____
 72
    65
 73
     6
 40
15.0
 49
7.5
 74
     0
 49
-1.5
 74
     0
 49
1.5
 74
     0
 49
-1.5
 74
     0
 49
1.5
 74
     0
 49
-1.5
 74
     0
  0
LTYPE
  5
2D
330
5
100
AcDbSymbolTableRecord
100
AcDbLinetypeTableRecord
  2
CENTER
 70
     0
  3
____ _ ____ _ ____ _ ____ _ ____ _ ____
 72
    65
 73
     4
 40
12.0
 49
7.5
 74
     0
 49
-1.5
 74
     0
 49
1.5
 74
     0
 49
-1.5
 74
     0
  0
LTYPE
  5
618
330
5
100
AcDbSymbolTableRecord
100
AcDbLinetypeTableRecord
  2
CENTER2
 70
     0
  3
Center (.5x) ___ _ ___ _ ___ _ ___ _ ___ _ ___
 72
    65
 73
     4
 40
28.575
 49
19.05
 74
     0
 49
-3.174999999999998
 74
     0
 49
3.174999999999998
 74
     0
 49
-3.174999999999998
 74
     0
  0
LTYPE
  5
619
330
5
100
AcDbSymbolTableRecord
100
AcDbLinetypeTableRecord
  2
HIDDEN2
 70
     0
  3
Hidden (.5x) _ _ _ _ _ _ _ _ _ _ _ _ _ _ _ _ _
 72
    65
 73
     2
 40
4.762499999999998
 49
3.174999999999998
 74
     0
 49
-1.587499999999999
 74
     0
  0
ENDTAB
  0
TABLE
  2
LAYER
  5
2
330
0
100
AcDbSymbolTable
 70
    11
  0
LAYER
  5
10
102
{ACAD_XDICTIONARY
360
8D6
102
}
330
2
100
AcDbSymbolTableRecord
100
AcDbLayerTableRecord
  2
0
 70
     0
 62
     7
  6
Continuous
370
    -3
390
F
  0
LAYER
  5
538
330
2
100
AcDbSymbolTableRecord
100
AcDbLayerTableRecord
  2
Defpoints
 70
     0
 62
     7
  6
Continuous
290
     0
370
    -3
390
F
  0
LAYER
  5
5F9
102
{ACAD_XDICTIONARY
360
8D8
102
}
330
2
100
AcDbSymbolTableRecord
100
AcDbLayerTableRecord
  2
VIEW0001
 70
     0
 62
     7
  6
Continuous
370
    -3
390
F
  0
LAYER
  5
61A
102
{ACAD_XDICTIONARY
360
8DA
102
}
330
2
100
AcDbSymbolTableRecord
100
AcDbLayerTableRecord
  2
外形線
 70
     0
 62
     7
  6
Continuous
370
    30
390
F
1001
AcAecLayerStandard
1000

1000

  0
LAYER
  5
61B
102
{ACAD_XDICTIONARY
360
8DC
102
}
330
2
100
AcDbSymbolTableRecord
100
AcDbLayerTableRecord
  2
図枠
 70
     0
 62
     7
  6
Continuous
370
    50
390
F
1001
AcAecLayerStandard
1000

1000

  0
LAYER
  5
61C
102
{ACAD_XDICTIONARY
360
8DE
102
}
330
2
100
AcDbSymbolTableRecord
100
AcDbLayerTableRecord
  2
寸法線
 70
     0
 62
     3
  6
Continuous
370
    15
390
F
1001
AcAecLayerStandard
1000

1000

  0
LAYER
  5
61D
102
{ACAD_XDICTIONARY
360
8E0
102
}
330
2
100
AcDbSymbolTableRecord
100
AcDbLayerTableRecord
  2
中心線
 70
     0
 62
     5
  6
CENTER2
370
    -3
390
F
1001
AcAecLayerStandard
1000

1000

  0
LAYER
  5
61E
102
{ACAD_XDICTIONARY
360
8E2
102
}
330
2
100
AcDbSymbolTableRecord
100
AcDbLayerTableRecord
  2
破線
 70
     0
 62
     4
  6
HIDDEN2
370
    -3
390
F
1001
AcAecLayerStandard
1000

1000

  0
LAYER
  5
61F
102
{ACAD_XDICTIONARY
360
8E4
102
}
330
2
100
AcDbSymbolTableRecord
100
AcDbLayerTableRecord
  2
文字
 70
     0
 62
     2
  6
Continuous
370
    -3
390
F
1001
AcAecLayerStandard
1000

1000

  0
LAYER
  5
620
102
{ACAD_XDICTIONARY
360
8E6
102
}
330
2
100
AcDbSymbolTableRecord
100
AcDbLayerTableRecord
  2
補助線
 70
     0
 62
   252
  6
HIDDEN2
290
     0
370
    -3
390
F
1001
AcAecLayerStandard
1000

1000

  0
LAYER
  5
7C7
102
{ACAD_XDICTIONARY
360
8E8
102
}
330
2
100
AcDbSymbolTableRecord
100
AcDbLayerTableRecord
  2
VIEW0002
 70
     0
 62
     7
  6
Continuous
370
    -3
390
F
  0
ENDTAB
  0
TABLE
  2
STYLE
  5
3
330
0
100
AcDbSymbolTable
 70
     3
  0
STYLE
  5
11
330
3
100
AcDbSymbolTableRecord
100
AcDbTextStyleTableRecord
  2
Standard
 70
     0
 40
0.0
 41
1.0
 50
0.0
 71
     0
 42
2.5
  3
txt
  4
EXTFONT
  0
ENDTAB
  0
TABLE
  2
VIEW
  5
6
330
0
100
AcDbSymbolTable
 70
     0
  0
ENDTAB
  0
TABLE
  2
UCS
  5
7
330
0
100
AcDbSymbolTable
 70
     0
  0
ENDTAB
  0
TABLE
  2
APPID
  5
9
330
0
100
AcDbSymbolTable
 70
     7
  0
APPID
  5
12
330
9
100
AcDbSymbolTableRecord
100
AcDbRegAppTableRecord
  2
ACAD
 70
     0
  0
APPID
  5
622
330
9
100
AcDbSymbolTableRecord
100
AcDbRegAppTableRecord
  2
AcAecLayerStandard
 70
     0
  0
APPID
  5
828
330
9
100
AcDbSymbolTableRecord
100
AcDbRegAppTableRecord
  2
ACAD_PSEXT
 70
     0
  0
APPID
  5
8CD
330
9
100
AcDbSymbolTableRecord
100
AcDbRegAppTableRecord
  2
ACAD_NAV_VCDISPLAY
 70
     0
  0
APPID
  5
990
330
9
100
AcDbSymbolTableRecord
100
AcDbRegAppTableRecord
  2
ACAD_EXEMPT_FROM_CAD_STANDARDS
 70
     0
  0
APPID
  5
9A6
330
9
100
AcDbSymbolTableRecord
100
AcDbRegAppTableRecord
  2
AcadAnnoMonitorAlertIconDisabled
 70
     0
  0
APPID
  5
B1D
330
9
100
AcDbSymbolTableRecord
100
AcDbRegAppTableRecord
  2
ACAD_MLEADERVER
 70
     0
  0
ENDTAB
  0
TABLE
  2
DIMSTYLE
  5
A
330
0
100
AcDbSymbolTable
 70
     6
100
AcDbDimStyleTable
 71
     1
340
27
  0
DIMSTYLE
105
27
102
{ACAD_REACTORS
330
596
330
5A3
330
5B0
330
5BD
330
5CA
330
5D7
330
5E4
102
}
330
A
100
AcDbSymbolTableRecord
100
AcDbDimStyleTableRecord
  2
ISO-25
 70
     0
 41
2.5
 42
0.625
 43
3.75
 44
1.25
 73
     0
 74
     0
 77
     1
 78
     8
140
2.5
141
2.5
143
0.03937007874016
147
0.625
171
     3
172
     1
271
     2
272
     2
274
     3
278
    44
283
     0
284
     8
340
11
  0
DIMSTYLE
105
621
330
A
100
AcDbSymbolTableRecord
100
AcDbDimStyleTableRecord
  2
Standard
 70
     0
340
11
  0
DIMSTYLE
105
8CC
330
A
100
AcDbSymbolTableRecord
100
AcDbDimStyleTableRecord
  2
DIMSTYLE
 70
     0
 41
1.0
 42
2.539999961853026
 44
2.54
 73
     0
 74
     0
140
3.200000047683716
147
1.600000023841858
173
     1
271
     2
275
     1
340
11
341
532
342
532
343
532
344
532
  0
ENDTAB
  0
TABLE
  2
BLOCK_RECORD
  5
1
330
0
100
AcDbSymbolTable
 70
    13
  0
BLOCK_RECORD
  5
1F
102
{ACAD_XDICTIONARY
360
628
102
}
330
1
100
AcDbSymbolTableRecord
100
AcDbBlockTableRecord
  2
*Model_Space
340
22
  0
BLOCK_RECORD
  5
1B
330
1
100
AcDbSymbolTableRecord
100
AcDbBlockTableRecord
  2
*Paper_Space
340
1E
  0
BLOCK_RECORD
  5
23
330
1
100
AcDbSymbolTableRecord
100
AcDbBlockTableRecord
  2
*Paper_Space0
340
26
  0
BLOCK_RECORD
  5
532
330
1
100
AcDbSymbolTableRecord
100
AcDbBlockTableRecord
  2
_Open30
340
0
102
{BLKREFS
331
A40
331
A41
331
A49
331
A4A
331
A52
331
A53
331
A5B
331
A5C
331
A64
331
A65
331
A6D
331
A6E
331
AD9
331
ADA
102
}
  0
BLOCK_RECORD
  5
597
330
1
100
AcDbSymbolTableRecord
100
AcDbBlockTableRecord
  2
*D2
340
0
  0
BLOCK_RECORD
  5
5A4
330
1
100
AcDbSymbolTableRecord
100
AcDbBlockTableRecord
  2
*D3
340
0
  0
BLOCK_RECORD
  5
5B1
330
1
100
AcDbSymbolTableRecord
100
AcDbBlockTableRecord
  2
*D4
340
0
  0
BLOCK_RECORD
  5
5BE
330
1
100
AcDbSymbolTableRecord
100
AcDbBlockTableRecord
  2
*D5
340
0
  0
BLOCK_RECORD
  5
5CB
330
1
100
AcDbSymbolTableRecord
100
AcDbBlockTableRecord
  2
*D6
340
0
  0
BLOCK_RECORD
  5
5D8
330
1
100
AcDbSymbolTableRecord
100
AcDbBlockTableRecord
  2
*D7
340
0
  0
BLOCK_RECORD
  5
5E5
330
1
100
AcDbSymbolTableRecord
100
AcDbBlockTableRecord
  2
*D8
340
0
  0
BLOCK_RECORD
  5
92D
102
{ACAD_XDICTIONARY
360
95C
102
}
330
1
100
AcDbSymbolTableRecord
100
AcDbBlockTableRecord
  2
A$C01483775
340
0
1001
ACAD
1000
DesignCenter Data
1002
{
1070
     1
1070
     4
1002
}
  0
ENDTAB
  0
ENDSEC
  0
SECTION
  2
BLOCKS
  0
BLOCK
  5
20
330
1F
100
AcDbEntity
  8
0
100
AcDbBlockBegin
  2
*Model_Space
 70
     0
 10
0.0
 20
0.0
 30
0.0
  3
*Model_Space
  1

  0
ENDBLK
  5
21
330
1F
100
AcDbEntity
  8
0
100
AcDbBlockEnd
  0
BLOCK
  5
1C
330
1B
100
AcDbEntity
 67
     1
  8
0
100
AcDbBlockBegin
  2
*Paper_Space
 70
     0
 10
0.0
 20
0.0
 30
0.0
  3
*Paper_Space
  1

  0
ENDBLK
  5
1D
330
1B
100
AcDbEntity
 67
     1
  8
0
100
AcDbBlockEnd
  0
BLOCK
  5
24
330
23
100
AcDbEntity
 67
     1
  8
0
100
AcDbBlockBegin
  2
*Paper_Space0
 70
     0
 10
0.0
 20
0.0
 30
0.0
  3
*Paper_Space0
  1

  0
ENDBLK
  5
25
330
23
100
AcDbEntity
 67
     1
  8
0
100
AcDbBlockEnd
  0
BLOCK
  5
533
330
532
100
AcDbEntity
  8
0
100
AcDbBlockBegin
  2
_Open30
 70
     0
 10
0.0
 20
0.0
 30
0.0
  3
_Open30
  1

  0
LINE
  5
535
330
532
100
AcDbEntity
  8
0
  6
ByBlock
 62
     0
370
    -2
100
AcDbLine
 10
-1.0
 20
0.267949
 30
0.0
 11
0.0
 21
0.0
 31
0.0
  0
LINE
  5
536
330
532
100
AcDbEntity
  8
0
  6
ByBlock
 62
     0
370
    -2
100
AcDbLine
 10
0.0
 20
0.0
 30
0.0
 11
-1.0
 21
-0.267949
 31
0.0
  0
LINE
  5
537
330
532
100
AcDbEntity
  8
0
  6
ByBlock
 62
     0
370
    -2
100
AcDbLine
 10
0.0
 20
0.0
 30
0.0
 11
-1.0
 21
0.0
 31
0.0
  0
ENDBLK
  5
534
330
532
100
AcDbEntity
  8
0
100
AcDbBlockEnd
  0
BLOCK
  5
5A1
330
597
100
AcDbEntity
  8
0
100
AcDbBlockBegin
  2
*D2
 70
     1
 10
0.0
 20
0.0
 30
0.0
  3
*D2
  1

  0
LINE
  5
A3D
330
597
100
AcDbEntity
  8
寸法線
 62
     0
440
 16777216
370
    -2
100
AcDbLine
 10
-17.82915255613881
 20
7.20987195936918
 30
0.0
 11
-17.82915255613881
 21
-8.291915981421958
 31
0.0
  0
LINE
  5
A3E
330
597
100
AcDbEntity
  8
寸法線
 62
     0
440
 16777216
370
    -2
100
AcDbLine
 10
15.72084744386115
 20
4.559871959369185
 30
0.0
 11
15.72084744386115
 21
-8.291915981421958
 31
0.0
  0
LINE
  5
A3F
330
597
100
AcDbEntity
  8
寸法線
 62
     0
440
 16777216
370
    -2
100
AcDbLine
 10
-14.82915255613881
 20
-7.148915981421957
 30
0.0
 11
12.72084744386115
 21
-7.148915981421957
 31
0.0
  0
INSERT
  5
A40
330
597
100
AcDbEntity
  8
寸法線
 62
     0
440
 16777216
370
    -2
100
AcDbBlockReference
  2
_Open30
 10
-17.82915255613881
 20
-7.148915981421957
 30
0.0
 41
3.0
 42
3.0
 43
3.0
 50
180.0
  0
INSERT
  5
A41
330
597
100
AcDbEntity
  8
寸法線
 62
     0
440
 16777216
370
    -2
100
AcDbBlockReference
  2
_Open30
 10
15.72084744386115
 20
-7.148915981421957
 30
0.0
 41
3.0
 42
3.0
 43
3.0
  0
MTEXT
  5
A42
330
597
100
AcDbEntity
  8
寸法線
 62
     0
440
 16777216
100
AcDbMText
 10
-1.054152556138828
 20
-4.74891594565917
 30
0.0
 40
3.200000047683716
 41
0.0
 71
     5
 72
     1
  1
Ｗ３
 73
     1
 44
1.0
  0
POINT
  5
A43
330
597
100
AcDbEntity
  8
Defpoints
 62
     0
440
 16777216
100
AcDbPoint
 10
-17.82915255613881
 20
9.74987195936918
 30
0.0
  0
POINT
  5
A44
330
597
100
AcDbEntity
  8
Defpoints
 62
     0
440
 16777216
100
AcDbPoint
 10
15.72084744386115
 20
7.099871959369185
 30
0.0
  0
POINT
  5
A45
330
597
100
AcDbEntity
  8
Defpoints
 62
     0
440
 16777216
100
AcDbPoint
 10
15.72084744386115
 20
-7.148915981421957
 30
0.0
  0
ENDBLK
  5
5A2
330
597
100
AcDbEntity
  8
0
100
AcDbBlockEnd
  0
BLOCK
  5
5AE
330
5A4
100
AcDbEntity
  8
0
100
AcDbBlockBegin
  2
*D3
 70
     1
 10
0.0
 20
0.0
 30
0.0
  3
*D3
  1

  0
LINE
  5
A46
330
5A4
100
AcDbEntity
  8
寸法線
 62
     0
440
 16777216
370
    -2
100
AcDbLine
 10
-20.82915255613887
 20
7.20987195936918
 30
0.0
 11
-20.82915255613887
 21
-8.291915981421958
 31
0.0
  0
LINE
  5
A47
330
5A4
100
AcDbEntity
  8
寸法線
 62
     0
440
 16777216
370
    -2
100
AcDbLine
 10
-54.37915255613874
 20
7.20987195936918
 30
0.0
 11
-54.37915255613874
 21
-8.291915981421958
 31
0.0
  0
LINE
  5
A48
330
5A4
100
AcDbEntity
  8
寸法線
 62
     0
440
 16777216
370
    -2
100
AcDbLine
 10
-23.82915255613887
 20
-7.148915981421957
 30
0.0
 11
-51.37915255613874
 21
-7.148915981421957
 31
0.0
  0
INSERT
  5
A49
330
5A4
100
AcDbEntity
  8
寸法線
 62
     0
440
 16777216
370
    -2
100
AcDbBlockReference
  2
_Open30
 10
-20.82915255613887
 20
-7.148915981421957
 30
0.0
 41
3.0
 42
3.0
 43
3.0
  0
INSERT
  5
A4A
330
5A4
100
AcDbEntity
  8
寸法線
 62
     0
440
 16777216
370
    -2
100
AcDbBlockReference
  2
_Open30
 10
-54.37915255613874
 20
-7.148915981421957
 30
0.0
 41
3.0
 42
3.0
 43
3.0
 50
180.0
  0
MTEXT
  5
A4B
330
5A4
100
AcDbEntity
  8
寸法線
 62
     0
440
 16777216
100
AcDbMText
 10
-37.59163811716506
 20
-4.74891594565917
 30
0.0
 40
3.200000047683716
 41
0.0
 71
     5
 72
     1
  1
Ｗ１
 73
     1
 44
1.0
  0
POINT
  5
A4C
330
5A4
100
AcDbEntity
  8
Defpoints
 62
     0
440
 16777216
100
AcDbPoint
 10
-20.82915255613887
 20
9.74987195936918
 30
0.0
  0
POINT
  5
A4D
330
5A4
100
AcDbEntity
  8
Defpoints
 62
     0
440
 16777216
100
AcDbPoint
 10
-54.37915255613874
 20
9.74987195936918
 30
0.0
  0
POINT
  5
A4E
330
5A4
100
AcDbEntity
  8
Defpoints
 62
     0
440
 16777216
100
AcDbPoint
 10
-54.37915255613874
 20
-7.148915981421957
 30
0.0
  0
ENDBLK
  5
5AF
330
5A4
100
AcDbEntity
  8
0
100
AcDbBlockEnd
  0
BLOCK
  5
5BB
330
5B1
100
AcDbEntity
  8
0
100
AcDbBlockBegin
  2
*D4
 70
     1
 10
0.0
 20
0.0
 30
0.0
  3
*D4
  1

  0
LINE
  5
A4F
330
5B1
100
AcDbEntity
  8
寸法線
 62
     0
440
 16777216
370
    -2
100
AcDbLine
 10
-57.91915255613874
 20
9.74987195936918
 30
0.0
 11
-69.58324646039566
 21
9.749871959369183
 31
0.0
  0
LINE
  5
A50
330
5B1
100
AcDbEntity
  8
寸法線
 62
     0
440
 16777216
370
    -2
100
AcDbLine
 10
-40.14415255613879
 20
26.02487195936921
 30
0.0
 11
-69.58324646039566
 21
26.02487195936922
 31
0.0
  0
LINE
  5
A51
330
5B1
100
AcDbEntity
  8
寸法線
 62
     0
440
 16777216
370
    -2
100
AcDbLine
 10
-67.29724646039565
 20
12.74987195936918
 30
0.0
 11
-67.29724646039565
 21
23.02487195936922
 31
0.0
  0
INSERT
  5
A52
330
5B1
100
AcDbEntity
  8
寸法線
 62
     0
440
 16777216
370
    -2
100
AcDbBlockReference
  2
_Open30
 10
-67.29724646039565
 20
9.749871959369182
 30
0.0
 41
3.0
 42
3.0
 43
3.0
 50
270.0
  0
INSERT
  5
A53
330
5B1
100
AcDbEntity
  8
寸法線
 62
     0
440
 16777216
370
    -2
100
AcDbBlockReference
  2
_Open30
 10
-67.29724646039565
 20
26.02487195936922
 30
0.0
 41
3.0
 42
3.0
 43
3.0
 50
90.0
  0
MTEXT
  5
A54
330
5B1
100
AcDbEntity
  8
寸法線
 62
     0
440
 16777216
100
AcDbMText
 10
-69.69724649615844
 20
17.88737195936918
 30
0.0
 40
3.200000047683716
 41
0.0
 71
     5
 72
     1
  1
h
 11
0.0000000000000001
 21
1.0
 31
0.0
 73
     1
 44
1.0
  0
POINT
  5
A55
330
5B1
100
AcDbEntity
  8
Defpoints
 62
     0
440
 16777216
100
AcDbPoint
 10
-55.37915255613874
 20
9.74987195936918
 30
0.0
  0
POINT
  5
A56
330
5B1
100
AcDbEntity
  8
Defpoints
 62
     0
440
 16777216
100
AcDbPoint
 10
-37.6041525561388
 20
26.02487195936921
 30
0.0
  0
POINT
  5
A57
330
5B1
100
AcDbEntity
  8
Defpoints
 62
     0
440
 16777216
100
AcDbPoint
 10
-67.29724646039565
 20
26.02487195936922
 30
0.0
  0
ENDBLK
  5
5BC
330
5B1
100
AcDbEntity
  8
0
100
AcDbBlockEnd
  0
BLOCK
  5
5C8
330
5BE
100
AcDbEntity
  8
0
100
AcDbBlockBegin
  2
*D5
 70
     1
 10
0.0
 20
0.0
 30
0.0
  3
*D5
  1

  0
LINE
  5
A58
330
5BE
100
AcDbEntity
  8
寸法線
 62
     0
440
 16777216
370
    -2
100
AcDbLine
 10
77.27791220504956
 20
5.809871959369185
 30
0.0
 11
77.27791220504956
 21
-8.291915981421958
 31
0.0
  0
LINE
  5
A59
330
5BE
100
AcDbEntity
  8
寸法線
 62
     0
440
 16777216
370
    -2
100
AcDbLine
 10
37.6279122050496
 20
7.20987195936918
 30
0.0
 11
37.6279122050496
 21
-8.291915981421958
 31
0.0
  0
LINE
  5
A5A
330
5BE
100
AcDbEntity
  8
寸法線
 62
     0
440
 16777216
370
    -2
100
AcDbLine
 10
74.27791220504956
 20
-7.148915981421957
 30
0.0
 11
40.62791220504959
 21
-7.148915981421957
 31
0.0
  0
INSERT
  5
A5B
330
5BE
100
AcDbEntity
  8
寸法線
 62
     0
440
 16777216
370
    -2
100
AcDbBlockReference
  2
_Open30
 10
77.27791220504956
 20
-7.148915981421957
 30
0.0
 41
3.0
 42
3.0
 43
3.0
  0
INSERT
  5
A5C
330
5BE
100
AcDbEntity
  8
寸法線
 62
     0
440
 16777216
370
    -2
100
AcDbBlockReference
  2
_Open30
 10
37.6279122050496
 20
-7.148915981421957
 30
0.0
 41
3.0
 42
3.0
 43
3.0
 50
180.0
  0
MTEXT
  5
A5D
330
5BE
100
AcDbEntity
  8
寸法線
 62
     0
440
 16777216
100
AcDbMText
 10
57.45291220504959
 20
-4.74891594565917
 30
0.0
 40
3.200000047683716
 41
0.0
 71
     5
 72
     1
  1
Ｌ
 73
     1
 44
1.0
  0
POINT
  5
A5E
330
5BE
100
AcDbEntity
  8
Defpoints
 62
     0
440
 16777216
100
AcDbPoint
 10
77.27791220504956
 20
8.349871959369185
 30
0.0
  0
POINT
  5
A5F
330
5BE
100
AcDbEntity
  8
Defpoints
 62
     0
440
 16777216
100
AcDbPoint
 10
37.6279122050496
 20
9.74987195936918
 30
0.0
  0
POINT
  5
A60
330
5BE
100
AcDbEntity
  8
Defpoints
 62
     0
440
 16777216
100
AcDbPoint
 10
37.6279122050496
 20
-7.148915981421957
 30
0.0
  0
ENDBLK
  5
5C9
330
5BE
100
AcDbEntity
  8
0
100
AcDbBlockEnd
  0
BLOCK
  5
5D5
330
5CB
100
AcDbEntity
  8
0
100
AcDbBlockBegin
  2
*D6
 70
     1
 10
0.0
 20
0.0
 30
0.0
  3
*D6
  1

  0
LINE
  5
A61
330
5CB
100
AcDbEntity
  8
寸法線
 62
     0
440
 16777216
370
    -2
100
AcDbLine
 10
-54.37915255613874
 20
4.669871959369181
 30
0.0
 11
-54.37915255613874
 21
-19.69407177851354
 31
0.0
  0
LINE
  5
A62
330
5CB
100
AcDbEntity
  8
寸法線
 62
     0
440
 16777216
370
    -2
100
AcDbLine
 10
15.72084744386115
 20
2.019871959369182
 30
0.0
 11
15.72084744386115
 21
-19.69407177851354
 31
0.0
  0
LINE
  5
A63
330
5CB
100
AcDbEntity
  8
寸法線
 62
     0
440
 16777216
370
    -2
100
AcDbLine
 10
-51.37915255613874
 20
-17.40807177851354
 30
0.0
 11
12.72084744386115
 21
-17.40807177851354
 31
0.0
  0
INSERT
  5
A64
330
5CB
100
AcDbEntity
  8
寸法線
 62
     0
440
 16777216
370
    -2
100
AcDbBlockReference
  2
_Open30
 10
-54.37915255613874
 20
-17.40807177851354
 30
0.0
 41
3.0
 42
3.0
 43
3.0
 50
180.0
  0
INSERT
  5
A65
330
5CB
100
AcDbEntity
  8
寸法線
 62
     0
440
 16777216
370
    -2
100
AcDbBlockReference
  2
_Open30
 10
15.72084744386115
 20
-17.40807177851354
 30
0.0
 41
3.0
 42
3.0
 43
3.0
  0
MTEXT
  5
A66
330
5CB
100
AcDbEntity
  8
寸法線
 62
     0
440
 16777216
100
AcDbMText
 10
-19.32915255613881
 20
-15.00807174275075
 30
0.0
 40
3.200000047683716
 41
0.0
 71
     5
 72
     1
  1
Ｗ４
 73
     1
 44
1.0
  0
POINT
  5
A67
330
5CB
100
AcDbEntity
  8
Defpoints
 62
     0
440
 16777216
100
AcDbPoint
 10
-54.37915255613874
 20
7.209871959369181
 30
0.0
  0
POINT
  5
A68
330
5CB
100
AcDbEntity
  8
Defpoints
 62
     0
440
 16777216
100
AcDbPoint
 10
15.72084744386115
 20
4.559871959369182
 30
0.0
  0
POINT
  5
A69
330
5CB
100
AcDbEntity
  8
Defpoints
 62
     0
440
 16777216
100
AcDbPoint
 10
15.72084744386115
 20
-17.40807177851354
 30
0.0
  0
ENDBLK
  5
5D6
330
5CB
100
AcDbEntity
  8
0
100
AcDbBlockEnd
  0
BLOCK
  5
5E2
330
5D8
100
AcDbEntity
  8
0
100
AcDbBlockBegin
  2
*D7
 70
     1
 10
0.0
 20
0.0
 30
0.0
  3
*D7
  1

  0
LINE
  5
A6A
330
5D8
100
AcDbEntity
  8
寸法線
 62
     0
440
 16777216
370
    -2
100
AcDbLine
 10
-56.16915255613879
 20
41.75362889301323
 30
0.0
 11
-69.58324646039564
 21
41.75362889301323
 31
0.0
  0
LINE
  5
A6B
330
5D8
100
AcDbEntity
  8
寸法線
 62
     0
440
 16777216
370
    -2
100
AcDbLine
 10
-56.16915255613879
 20
81.40362889301327
 30
0.0
 11
-69.58324646039564
 21
81.40362889301327
 31
0.0
  0
LINE
  5
A6C
330
5D8
100
AcDbEntity
  8
寸法線
 62
     0
440
 16777216
370
    -2
100
AcDbLine
 10
-67.29724646039564
 20
44.75362889301322
 30
0.0
 11
-67.29724646039564
 21
78.40362889301326
 31
0.0
  0
INSERT
  5
A6D
330
5D8
100
AcDbEntity
  8
寸法線
 62
     0
440
 16777216
370
    -2
100
AcDbBlockReference
  2
_Open30
 10
-67.29724646039564
 20
41.75362889301323
 30
0.0
 41
3.0
 42
3.0
 43
3.0
 50
270.0
  0
INSERT
  5
A6E
330
5D8
100
AcDbEntity
  8
寸法線
 62
     0
440
 16777216
370
    -2
100
AcDbBlockReference
  2
_Open30
 10
-67.29724646039564
 20
81.40362889301327
 30
0.0
 41
3.0
 42
3.0
 43
3.0
 50
90.0
  0
MTEXT
  5
A6F
330
5D8
100
AcDbEntity
  8
寸法線
 62
     0
440
 16777216
100
AcDbMText
 10
-69.69724649615844
 20
61.57862889301324
 30
0.0
 40
3.200000047683716
 41
0.0
 71
     5
 72
     1
  1
Ｌ
 11
0.0000000000000001
 21
1.0
 31
0.0
 73
     1
 44
1.0
  0
POINT
  5
A70
330
5D8
100
AcDbEntity
  8
Defpoints
 62
     0
440
 16777216
100
AcDbPoint
 10
-53.62915255613878
 20
41.75362889301323
 30
0.0
  0
POINT
  5
A71
330
5D8
100
AcDbEntity
  8
Defpoints
 62
     0
440
 16777216
100
AcDbPoint
 10
-53.62915255613878
 20
81.40362889301327
 30
0.0
  0
POINT
  5
A72
330
5D8
100
AcDbEntity
  8
Defpoints
 62
     0
440
 16777216
100
AcDbPoint
 10
-67.29724646039564
 20
81.40362889301327
 30
0.0
  0
ENDBLK
  5
5E3
330
5D8
100
AcDbEntity
  8
0
100
AcDbBlockEnd
  0
BLOCK
  5
5F0
330
5E5
100
AcDbEntity
  8
0
100
AcDbBlockBegin
  2
*D8
 70
     1
 10
0.0
 20
0.0
 30
0.0
  3
*D8
  1

  0
LINE
  5
AD0
330
5E5
100
AcDbEntity
  8
寸法線
 62
     0
440
 16777216
370
    -2
100
AcDbLine
 10
-20.82915255613887
 20
-5.751915981421958
 30
0.0
 11
-20.82915255613887
 21
-4.862915981421958
 31
0.0
  0
LINE
  5
AD1
330
5E5
100
AcDbEntity
  8
寸法線
 62
     0
440
 16777216
370
    -2
100
AcDbLine
 10
-17.82915255613881
 20
-5.751915981421958
 30
0.0
 11
-17.82915255613881
 21
-4.862915981421958
 31
0.0
  0
LINE
  5
AD2
330
5E5
100
AcDbEntity
  8
寸法線
 62
     0
440
 16777216
370
    -2
100
AcDbLine
 10
-23.82915255613887
 20
-7.148915981421957
 30
0.0
 11
-26.82915255613887
 21
-7.148915981421957
 31
0.0
  0
LINE
  5
AD3
330
5E5
100
AcDbEntity
  8
寸法線
 62
     0
440
 16777216
370
    -2
100
AcDbLine
 10
-14.82915255613881
 20
-7.148915981421957
 30
0.0
 11
-11.82915255613881
 21
-7.148915981421957
 31
0.0
  0
LINE
  5
AD4
330
5E5
100
AcDbEntity
  8
寸法線
 62
     0
440
 16777216
370
    -2
100
AcDbLine
 10
-19.32915255613884
 20
-7.148915981421957
 30
0.0
 11
-16.15111062136248
 21
-1.823840851079467
 31
0.0
  0
LINE
  5
AD5
330
5E5
100
AcDbEntity
  8
寸法線
 62
     0
440
 16777216
370
    -2
100
AcDbLine
 10
-16.15111062136248
 20
-1.823840851079467
 30
0.0
 11
-8.577777175177681
 21
-1.823840851079467
 31
0.0
  0
MTEXT
  5
AD6
330
5E5
100
AcDbEntity
  8
寸法線
 62
     0
440
 16777216
100
AcDbMText
 10
-12.36444389827008
 20
0.5761591846833203
 30
0.0
 40
3.200000047683716
 41
0.0
 71
     5
 72
     1
  1
Ｗ２
 73
     1
 44
1.0
  0
LINE
  5
AD7
330
5E5
100
AcDbEntity
  8
寸法線
 62
     0
440
 16777216
370
    -2
100
AcDbLine
 10
-20.82915255613887
 20
-7.148915981421957
 30
0.0
 11
-17.82915255613881
 21
-7.148915981421957
 31
0.0
  0
LINE
  5
AD8
330
5E5
100
AcDbEntity
  8
寸法線
 62
     0
440
 16777216
370
    -2
100
AcDbLine
 10
-20.82915255613887
 20
-7.148915981421957
 30
0.0
 11
-17.82915255613881
 21
-7.148915981421957
 31
0.0
  0
INSERT
  5
AD9
330
5E5
100
AcDbEntity
  8
寸法線
 62
     0
440
 16777216
370
    -2
100
AcDbBlockReference
  2
_Open30
 10
-20.82915255613887
 20
-7.148915981421957
 30
0.0
 41
3.0
 42
3.0
 43
3.0
  0
INSERT
  5
ADA
330
5E5
100
AcDbEntity
  8
寸法線
 62
     0
440
 16777216
370
    -2
100
AcDbBlockReference
  2
_Open30
 10
-17.82915255613881
 20
-7.148915981421957
 30
0.0
 41
3.0
 42
3.0
 43
3.0
 50
180.0
  0
POINT
  5
ADB
330
5E5
100
AcDbEntity
  8
Defpoints
 62
     0
440
 16777216
100
AcDbPoint
 10
-20.82915255613887
 20
-8.291915981421958
 30
0.0
  0
POINT
  5
ADC
330
5E5
100
AcDbEntity
  8
Defpoints
 62
     0
440
 16777216
100
AcDbPoint
 10
-17.82915255613881
 20
-8.291915981421958
 30
0.0
  0
POINT
  5
ADD
330
5E5
100
AcDbEntity
  8
Defpoints
 62
     0
440
 16777216
100
AcDbPoint
 10
-17.82915255613881
 20
-7.148915981421957
 30
0.0
  0
ENDBLK
  5
5F1
330
5E5
100
AcDbEntity
  8
0
100
AcDbBlockEnd
  0
BLOCK
  5
95E
330
92D
100
AcDbEntity
  8
0
100
AcDbBlockBegin
  2
A$C01483775
 70
     0
 10
0.0
 20
0.0
 30
0.0
  3
A$C01483775
  1

  0
LINE
  5
92E
330
92D
100
AcDbEntity
  8
0
  6
Continuous
 62
     7
100
AcDbLine
 10
0.0000002287445113
 20
37.44767622533969
 30
0.0
 11
144.0000002287445
 21
37.44767622533969
 31
0.0
  0
LINE
  5
92F
330
92D
100
AcDbEntity
  8
0
  6
Continuous
 62
     7
100
AcDbLine
 10
0.0000002287445113
 20
45.4476762253397
 30
0.0
 11
144.0000002287445
 21
45.4476762253397
 31
0.0
  0
LINE
  5
930
330
92D
100
AcDbEntity
  8
0
  6
Continuous
 62
     7
100
AcDbLine
 10
0.0000002287445113
 20
29.44767622533973
 30
0.0
 11
144.0000002287445
 21
29.44767622533973
 31
0.0
  0
LINE
  5
931
330
92D
100
AcDbEntity
  8
0
  6
Continuous
 62
     7
100
AcDbLine
 10
0.0000002287445113
 20
21.44767622533968
 30
0.0
 11
144.0000002287445
 21
21.44767622533968
 31
0.0
  0
LINE
  5
932
330
92D
100
AcDbEntity
  8
0
  6
Continuous
 62
     7
100
AcDbLine
 10
0.0000002287445113
 20
13.44767622533967
 30
0.0
 11
144.0000002287445
 21
13.44767622533967
 31
0.0
  0
LINE
  5
933
330
92D
100
AcDbEntity
  8
0
  6
Continuous
 62
     7
100
AcDbLine
 10
24.00000022874452
 20
53.44767622533971
 30
0.0
 11
24.00000022874452
 21
13.44767622533967
 31
0.0
  0
LINE
  5
934
330
92D
100
AcDbEntity
  8
0
  6
Continuous
 62
     7
100
AcDbLine
 10
0.0000002287445113
 20
53.44767622533971
 30
0.0
 11
0.0000002287445113
 21
13.44767622533967
 31
0.0
  0
LINE
  5
935
330
92D
100
AcDbEntity
  8
0
  6
Continuous
 62
     7
100
AcDbLine
 10
0.0000002287445113
 20
53.44767622533971
 30
0.0
 11
144.0000002287445
 21
53.44767622533971
 31
0.0
  0
LINE
  5
936
330
92D
100
AcDbEntity
  8
0
  6
Continuous
 62
     7
100
AcDbLine
 10
48.00000022874453
 20
53.44767622533971
 30
0.0
 11
48.00000022874453
 21
13.44767622533967
 31
0.0
  0
LINE
  5
937
330
92D
100
AcDbEntity
  8
0
  6
Continuous
 62
     7
100
AcDbLine
 10
72.0000002287445
 20
53.44767622533971
 30
0.0
 11
72.0000002287445
 21
13.44767622533967
 31
0.0
  0
LINE
  5
938
330
92D
100
AcDbEntity
  8
0
  6
Continuous
 62
     7
100
AcDbLine
 10
96.00000022874453
 20
53.44767622533971
 30
0.0
 11
96.00000022874453
 21
13.44767622533967
 31
0.0
  0
LINE
  5
939
330
92D
100
AcDbEntity
  8
0
  6
Continuous
 62
     7
100
AcDbLine
 10
120.0000002287445
 20
53.44767622533971
 30
0.0
 11
120.0000002287445
 21
13.44767622533967
 31
0.0
  0
LINE
  5
93A
330
92D
100
AcDbEntity
  8
0
  6
Continuous
 62
     7
100
AcDbLine
 10
144.0000002287445
 20
53.44767622533971
 30
0.0
 11
144.0000002287445
 21
13.44767622533967
 31
0.0
  0
MTEXT
  5
93B
330
92D
100
AcDbEntity
  8
0
 62
     7
100
AcDbMText
 10
6.05700023995017
 20
39.84767620149786
 30
0.0
 40
3.200000047683716
 41
0.0
 71
     7
 72
     1
  1
{\W0.833333;ＶＵ５０}
 73
     1
 44
1.0
  0
MTEXT
  5
93C
330
92D
100
AcDbEntity
  8
0
 62
     7
100
AcDbMText
 10
6.05700023995017
 20
31.84767620149786
 30
0.0
 40
3.200000047683716
 41
0.0
 71
     7
 72
     1
  1
{\W0.833333;ＶＵ６５}
 73
     1
 44
1.0
  0
MTEXT
  5
93D
330
92D
100
AcDbEntity
  8
0
 62
     7
100
AcDbMText
 10
6.05700023995017
 20
23.84767620149785
 30
0.0
 40
3.200000047683716
 41
0.0
 71
     7
 72
     1
  1
{\W0.833333;ＶＵ７５}
 73
     1
 44
1.0
  0
MTEXT
  5
93E
330
92D
100
AcDbEntity
  8
0
 62
     7
100
AcDbMText
 10
4.457000245910663
 20
15.84767620149782
 30
0.0
 40
3.200000047683716
 41
0.0
 71
     7
 72
     1
  1
{\W0.833333;ＶＵ１００}
 73
     1
 44
1.0
  0
MTEXT
  5
93F
330
92D
100
AcDbEntity
  8
0
 62
     7
100
AcDbMText
 10
9.257000228029262
 20
47.84767620149785
 30
0.0
 40
3.200000047683716
 41
0.0
 71
     7
 72
     1
  1
{\W0.833333;規格}
 73
     1
 44
1.0
  0
MTEXT
  5
940
330
92D
100
AcDbEntity
  8
0
 62
     7
100
AcDbMText
 10
33.25700022802923
 20
47.84767620149785
 30
0.0
 40
3.200000047683716
 41
0.0
 71
     7
 72
     1
  1
{\W0.833333;Ｄ１}
 73
     1
 44
1.0
  0
MTEXT
  5
941
330
92D
100
AcDbEntity
  8
0
 62
     7
100
AcDbMText
 10
57.25700022802926
 20
47.84767620149785
 30
0.0
 40
3.200000047683716
 41
0.0
 71
     7
 72
     1
  1
{\W0.833333;Ｄ２}
 73
     1
 44
1.0
  0
MTEXT
  5
942
330
92D
100
AcDbEntity
  8
0
 62
     7
100
AcDbMText
 10
81.25700022802925
 20
47.84767620149785
 30
0.0
 40
3.200000047683716
 41
0.0
 71
     7
 72
     1
  1
{\W0.833333;Ｄ３}
 73
     1
 44
1.0
  0
MTEXT
  5
943
330
92D
100
AcDbEntity
  8
0
 62
     7
100
AcDbMText
 10
105.2570002280292
 20
47.84767620149785
 30
0.0
 40
3.200000047683716
 41
0.0
 71
     7
 72
     1
  1
{\W0.833333;Ｌ１}
 73
     1
 44
1.0
  0
MTEXT
  5
944
330
92D
100
AcDbEntity
  8
0
 62
     7
100
AcDbMText
 10
129.2570002280292
 20
47.84767620149785
 30
0.0
 40
3.200000047683716
 41
0.0
 71
     7
 72
     1
  1
{\W0.833333;Ｌ２}
 73
     1
 44
1.0
  0
MTEXT
  5
945
330
92D
100
AcDbEntity
  8
0
 62
     7
100
AcDbMText
 10
129.2570002280292
 20
39.84767620149786
 30
0.0
 40
3.200000047683716
 41
0.0
 71
     7
 72
     1
  1
{\W0.833333;２９}
 73
     1
 44
1.0
  0
MTEXT
  5
946
330
92D
100
AcDbEntity
  8
0
 62
     7
100
AcDbMText
 10
105.2570002280292
 20
39.84767620149786
 30
0.0
 40
3.200000047683716
 41
0.0
 71
     7
 72
     1
  1
{\W0.833333;５０}
 73
     1
 44
1.0
  0
MTEXT
  5
947
330
92D
100
AcDbEntity
  8
0
 62
     7
100
AcDbMText
 10
78.05700023995017
 20
39.84767620149786
 30
0.0
 40
3.200000047683716
 41
0.0
 71
     7
 72
     1
  1
\W0.833333;６{\F|c128;３}．{\F|c128;８}
 73
     1
 44
1.0
  0
MTEXT
  5
948
330
92D
100
AcDbEntity
  8
0
 62
     7
100
AcDbMText
 10
52.45700024591065
 20
39.84767620149786
 30
0.0
 40
3.200000047683716
 41
0.0
 71
     7
 72
     1
  1
{\W0.833333;６０．３５}
 73
     1
 44
1.0
  0
MTEXT
  5
949
330
92D
100
AcDbEntity
  8
0
 62
     7
100
AcDbMText
 10
33.25700022802923
 20
39.84767620149786
 30
0.0
 40
3.200000047683716
 41
0.0
 71
     7
 72
     1
  1
{\W0.833333;６７}
 73
     1
 44
1.0
  0
MTEXT
  5
94A
330
92D
100
AcDbEntity
  8
0
 62
     7
100
AcDbMText
 10
129.2570002280292
 20
31.84767620149786
 30
0.0
 40
3.200000047683716
 41
0.0
 71
     7
 72
     1
  1
{\W0.833333;２９}
 73
     1
 44
1.0
  0
MTEXT
  5
94B
330
92D
100
AcDbEntity
  8
0
 62
     7
100
AcDbMText
 10
105.2570002280292
 20
31.84767620149786
 30
0.0
 40
3.200000047683716
 41
0.0
 71
     7
 72
     1
  1
{\W0.833333;６５}
 73
     1
 44
1.0
  0
MTEXT
  5
94C
330
92D
100
AcDbEntity
  8
0
 62
     7
100
AcDbMText
 10
78.05700023995017
 20
31.84767620149786
 30
0.0
 40
3.200000047683716
 41
0.0
 71
     7
 72
     1
  1
{\W0.833333;８３．６}
 73
     1
 44
1.0
  0
MTEXT
  5
94D
330
92D
100
AcDbEntity
  8
0
 62
     7
100
AcDbMText
 10
52.45700024591065
 20
31.84767620149786
 30
0.0
 40
3.200000047683716
 41
0.0
 71
     7
 72
     1
  1
{\W0.833333;７６．４０}
 73
     1
 44
1.0
  0
MTEXT
  5
94E
330
92D
100
AcDbEntity
  8
0
 62
     7
100
AcDbMText
 10
33.25700022802923
 20
31.84767620149786
 30
0.0
 40
3.200000047683716
 41
0.0
 71
     7
 72
     1
  1
{\W0.833333;８３}
 73
     1
 44
1.0
  0
MTEXT
  5
94F
330
92D
100
AcDbEntity
  8
0
 62
     7
100
AcDbMText
 10
105.2570002280292
 20
23.84767620149785
 30
0.0
 40
3.200000047683716
 41
0.0
 71
     7
 72
     1
  1
{\W0.833333;７４}
 73
     1
 44
1.0
  0
MTEXT
  5
950
330
92D
100
AcDbEntity
  8
0
 62
     7
100
AcDbMText
 10
33.25700022802923
 20
23.84767620149785
 30
0.0
 40
3.200000047683716
 41
0.0
 71
     7
 72
     1
  1
{\W0.833333;９８}
 73
     1
 44
1.0
  0
MTEXT
  5
951
330
92D
100
AcDbEntity
  8
0
 62
     7
100
AcDbMText
 10
129.2570002280292
 20
23.84767620149785
 30
0.0
 40
3.200000047683716
 41
0.0
 71
     7
 72
     1
  1
{\W0.833333;３０}
 73
     1
 44
1.0
  0
MTEXT
  5
952
330
92D
100
AcDbEntity
  8
0
 62
     7
100
AcDbMText
 10
78.05700023995017
 20
23.84767620149785
 30
0.0
 40
3.200000047683716
 41
0.0
 71
     7
 72
     1
  1
{\W0.833333;９７．６}
 73
     1
 44
1.0
  0
MTEXT
  5
953
330
92D
100
AcDbEntity
  8
0
 62
     7
100
AcDbMText
 10
52.45700024591065
 20
23.84767620149785
 30
0.0
 40
3.200000047683716
 41
0.0
 71
     7
 72
     1
  1
{\W0.833333;８９．４５}
 73
     1
 44
1.0
  0
MTEXT
  5
954
330
92D
100
AcDbEntity
  8
0
 62
     7
100
AcDbMText
 10
50.85700025187112
 20
15.84767620149782
 30
0.0
 40
3.200000047683716
 41
0.0
 71
     7
 72
     1
  1
{\W0.833333;１１４．５５}
 73
     1
 44
1.0
  0
MTEXT
  5
955
330
92D
100
AcDbEntity
  8
0
 62
     7
100
AcDbMText
 10
76.45700024591064
 20
15.84767620149782
 30
0.0
 40
3.200000047683716
 41
0.0
 71
     7
 72
     1
  1
{\W0.833333;１２３．５}
 73
     1
 44
1.0
  0
MTEXT
  5
956
330
92D
100
AcDbEntity
  8
0
 62
     7
100
AcDbMText
 10
129.2570002280292
 20
15.84767620149782
 30
0.0
 40
3.200000047683716
 41
0.0
 71
     7
 72
     1
  1
{\W0.833333;３２}
 73
     1
 44
1.0
  0
MTEXT
  5
957
330
92D
100
AcDbEntity
  8
0
 62
     7
100
AcDbMText
 10
31.65700023398972
 20
15.84767620149782
 30
0.0
 40
3.200000047683716
 41
0.0
 71
     7
 72
     1
  1
{\W0.833333;１２４}
 73
     1
 44
1.0
  0
MTEXT
  5
958
330
92D
100
AcDbEntity
  8
0
 62
     7
100
AcDbMText
 10
105.2570002280292
 20
15.84767620149782
 30
0.0
 40
3.200000047683716
 41
0.0
 71
     7
 72
     1
  1
{\W0.833333;８５}
 73
     1
 44
1.0
  0
MTEXT
  5
959
330
92D
100
AcDbEntity
  8
0
 62
     7
100
AcDbMText
 10
131.3099385808871
 20
7.974166753422963
 30
0.0
 40
3.200000047683716
 41
0.0
 71
     7
 72
     1
  1
{\W0.833333;（ｍｍ）}
 73
     1
 44
1.0
  0
MTEXT
  5
95A
330
92D
100
AcDbEntity
  8
VIEW0002
 62
     7
100
AcDbMText
 10
16.38085470708398
 20
4.237903369364588
 30
0.0
 40
3.200000047683716
 41
0.0
 71
     7
 72
     1
  1
{\W0.833333;*形状は規格毎に異なります。}
 73
     1
 44
1.0
  0
MTEXT
  5
95B
330
92D
100
AcDbEntity
  8
VIEW0002
 62
     7
100
AcDbMText
 10
16.28606502371278
 20
-0.00000002867597
 30
0.0
 40
3.200000047683716
 41
0.0
 71
     7
 72
     1
  1
{\W0.8333;*寸法、仕様等は製品改良の為、予告無く変更する場合があります。（Ｈ２４．６）}
 73
     1
 44
1.0
  0
ENDBLK
  5
95F
330
92D
100
AcDbEntity
  8
0
100
AcDbBlockEnd
  0
ENDSEC
  0
SECTION
  2
ENTITIES
  0
LINE
  5
244
330
1F
100
AcDbEntity
  8
外形線
100
AcDbLine
 10
-54.37915255613874
 20
53.87862889301326
 30
0.0
 11
-54.37915255613874
 21
46.17862889301323
 31
0.0
  0
LINE
  5
245
330
1F
100
AcDbEntity
  8
破線
100
AcDbLine
 10
-22.95753605602687
 20
55.55362889301324
 30
0.0
 11
-22.95753605602687
 21
56.05362889301324
 31
0.0
  0
LINE
  5
246
330
1F
100
AcDbEntity
  8
破線
100
AcDbLine
 10
-21.88003704435249
 20
43.25362889301323
 30
0.0
 11
-21.88003704435249
 21
61.57862889301324
 31
0.0
  0
LINE
  5
247
330
1F
100
AcDbEntity
  8
破線
100
AcDbLine
 10
-24.04882090284173
 20
55.41600843736259
 30
0.0
 11
-24.04882090284173
 21
56.19124934866388
 31
0.0
  0
LINE
  5
248
330
1F
100
AcDbEntity
  8
破線
100
AcDbLine
 10
-34.03892020985161
 20
71.59124934866389
 30
0.0
 11
-37.6041525561388
 21
71.59124934866389
 31
0.0
  0
LINE
  5
249
330
1F
100
AcDbEntity
  8
破線
100
AcDbLine
 10
-33.65069164219779
 20
72.07862889301329
 30
0.0
 11
-37.6041525561388
 21
72.07862889301329
 31
0.0
  0
LINE
  5
24A
330
1F
100
AcDbEntity
  8
破線
100
AcDbLine
 10
-15.98366105332633
 20
45.01637189886833
 30
0.0
 11
-15.00189830754508
 21
44.69737784573631
 31
0.0
  0
LINE
  5
24B
330
1F
100
AcDbEntity
  8
破線
100
AcDbLine
 10
14.06440819358372
 20
54.92862889301324
 30
0.0
 11
-1.054152556138829
 21
54.92862889301324
 31
0.0
  0
LINE
  5
24C
330
1F
100
AcDbEntity
  8
外形線
100
AcDbLine
 10
-1.054152556138829
 20
41.75362889301323
 30
0.0
 11
14.97084744386115
 21
41.75362889301323
 31
0.0
  0
LINE
  5
24D
330
1F
100
AcDbEntity
  8
破線
100
AcDbLine
 10
12.89359319526741
 20
55.35987994029021
 30
0.0
 11
13.87535594104862
 21
55.04088588715821
 31
0.0
  0
LINE
  5
24E
330
1F
100
AcDbEntity
  8
破線
100
AcDbLine
 10
-15.98366105332634
 20
66.5908858871581
 30
0.0
 11
-15.00189830754508
 21
66.90987994029015
 31
0.0
  0
LINE
  5
24F
330
1F
100
AcDbEntity
  8
破線
100
AcDbLine
 10
13.87535594104864
 20
78.14088588715815
 30
0.0
 11
12.8935931952674
 21
78.45987994029016
 31
0.0
  0
LINE
  5
250
330
1F
100
AcDbEntity
  8
破線
100
AcDbLine
 10
-22.95753605602693
 20
55.55362889301347
 30
0.0
 11
-24.04882090284177
 21
55.4160084373628
 31
0.0
  0
LINE
  5
251
330
1F
100
AcDbEntity
  8
破線
100
AcDbLine
 10
-24.04882090284173
 20
43.86600843736259
 30
0.0
 11
-24.04882090284173
 21
44.64124934866387
 31
0.0
  0
LINE
  5
252
330
1F
100
AcDbEntity
  8
破線
100
AcDbLine
 10
-22.40298072630932
 20
43.25362889301323
 30
0.0
 11
-22.40298072630932
 21
61.57862889301324
 31
0.0
  0
LINE
  5
253
330
1F
100
AcDbEntity
  8
破線
100
AcDbLine
 10
-53.45734845111482
 20
76.97862889301325
 30
0.0
 11
-52.03764225890996
 21
76.97862889301325
 31
0.0
  0
LINE
  5
254
330
1F
100
AcDbEntity
  8
破線
100
AcDbLine
 10
-33.65069164219779
 20
74.17862889301324
 30
0.0
 11
-37.6041525561388
 21
74.17862889301324
 31
0.0
  0
LINE
  5
255
330
1F
100
AcDbEntity
  8
破線
100
AcDbLine
 10
-22.40298072630932
 20
67.10362889301325
 30
0.0
 11
-22.95753605602687
 21
67.10362889301325
 31
0.0
  0
LINE
  5
256
330
1F
100
AcDbEntity
  8
破線
100
AcDbLine
 10
2.51107979014839
 20
48.49124934866384
 30
0.0
 11
2.899308357802181
 21
48.97862889301319
 31
0.0
  0
LINE
  5
257
330
1F
100
AcDbEntity
  8
破線
100
AcDbLine
 10
2.511079790148385
 20
51.56600843736256
 30
0.0
 11
2.511079790148385
 21
52.34124934866386
 31
0.0
  0
LINE
  5
258
330
1F
100
AcDbEntity
  8
外形線
100
AcDbLine
 10
15.72084744386115
 20
46.42862889301324
 30
0.0
 11
15.72084744386115
 21
61.57862889301324
 31
0.0
  0
LINE
  5
259
330
1F
100
AcDbEntity
  8
破線
100
AcDbLine
 10
-51.15948420943587
 20
43.86600843736259
 30
0.0
 11
-51.15948420943587
 21
44.64124934866387
 31
0.0
  0
LINE
  5
25A
330
1F
100
AcDbEntity
  8
破線
100
AcDbLine
 10
-52.80532438596829
 20
41.75362889301323
 30
0.0
 11
-52.80532438596829
 21
46.17862889301323
 31
0.0
  0
LINE
  5
25B
330
1F
100
AcDbEntity
  8
破線
100
AcDbLine
 10
-16.32915255613887
 20
43.75362889301323
 30
0.0
 11
-16.82804163342735
 21
43.75362889301323
 31
0.0
  0
LINE
  5
25C
330
1F
100
AcDbEntity
  8
破線
100
AcDbLine
 10
14.06440819358372
 20
79.77862889301326
 30
0.0
 11
-1.054152556138829
 21
79.77862889301326
 31
0.0
  0
LINE
  5
25D
330
1F
100
AcDbEntity
  8
破線
100
AcDbLine
 10
-52.80532438596825
 20
66.47862889301324
 30
0.0
 11
-37.6041525561388
 21
66.47862889301324
 31
0.0
  0
LINE
  5
25E
330
1F
100
AcDbEntity
  8
破線
100
AcDbLine
 10
2.51107979014845
 20
51.56600843736264
 30
0.0
 11
2.899308357802246
 21
51.07862889301329
 31
0.0
  0
LINE
  5
25F
330
1F
100
AcDbEntity
  8
破線
100
AcDbLine
 10
-41.55761347007982
 20
74.17862889301324
 30
0.0
 11
-37.6041525561388
 21
74.17862889301324
 31
0.0
  0
LINE
  5
260
330
1F
100
AcDbEntity
  8
破線
100
AcDbLine
 10
2.89930835780217
 20
51.07862889301322
 30
0.0
 11
2.89930835780217
 21
52.82862889301322
 31
0.0
  0
LINE
  5
261
330
1F
100
AcDbEntity
  8
破線
100
AcDbLine
 10
-5.007613470079861
 20
48.97862889301325
 30
0.0
 11
-1.054152556138829
 21
48.97862889301325
 31
0.0
  0
LINE
  5
262
330
1F
100
AcDbEntity
  8
破線
100
AcDbLine
 10
-16.82804163342735
 20
43.75362889301323
 30
0.0
 11
-16.82804163342735
 21
61.57862889301324
 31
0.0
  0
LINE
  5
263
330
1F
100
AcDbEntity
  8
破線
100
AcDbLine
 10
-16.83596868691734
 20
71.20362889301327
 30
0.0
 11
-1.57196381606684
 21
71.20362889301327
 31
0.0
  0
LINE
  5
264
330
1F
100
AcDbEntity
  8
破線
100
AcDbLine
 10
-37.6041525561388
 20
84.47173263636296
 30
0.0
 11
-37.6041525561388
 21
61.57862889301324
 31
0.0
  0
LINE
  5
265
330
1F
100
AcDbEntity
  8
破線
100
AcDbLine
 10
-52.2507690562507
 20
44.00362889301322
 30
0.0
 11
-52.2507690562507
 21
44.50362889301323
 31
0.0
  0
LINE
  5
266
330
1F
100
AcDbEntity
  8
外形線
100
AcDbLine
 10
-1.054152556138829
 20
81.40362889301327
 30
0.0
 11
14.97084744386115
 21
81.40362889301327
 31
0.0
  0
LINE
  5
267
330
1F
100
AcDbEntity
  8
破線
100
AcDbLine
 10
12.72084744386115
 20
55.41600843736259
 30
0.0
 11
-1.054152556138829
 21
55.41600843736259
 31
0.0
  0
LINE
  5
268
330
1F
100
AcDbEntity
  8
破線
100
AcDbLine
 10
-15.98366105332636
 20
56.56637189886838
 30
0.0
 11
-15.00189830754511
 21
56.24737784573637
 31
0.0
  0
LINE
  5
269
330
1F
100
AcDbEntity
  8
破線
100
AcDbLine
 10
13.87535594104862
 20
45.01637189886831
 30
0.0
 11
12.89359319526736
 21
44.6973778457363
 31
0.0
  0
LINE
  5
26A
330
1F
100
AcDbEntity
  8
破線
100
AcDbLine
 10
12.89359319526741
 20
67.79737784573635
 30
0.0
 11
13.87535594104865
 21
68.11637189886837
 31
0.0
  0
LINE
  5
26B
330
1F
100
AcDbEntity
  8
破線
100
AcDbLine
 10
14.06440819358372
 20
43.37862889301322
 30
0.0
 11
-1.054152556138829
 21
43.37862889301322
 31
0.0
  0
LINE
  5
26C
330
1F
100
AcDbEntity
  8
破線
100
AcDbLine
 10
-51.15948420943587
 20
43.86600843736259
 30
0.0
 11
-52.80532438596825
 21
43.37862889301323
 31
0.0
  0
LINE
  5
26D
330
1F
100
AcDbEntity
  8
破線
100
AcDbLine
 10
-52.25076905625078
 20
78.65362889301303
 30
0.0
 11
-51.15948420943595
 21
78.51600843736242
 31
0.0
  0
LINE
  5
26E
330
1F
100
AcDbEntity
  8
破線
100
AcDbLine
 10
-41.29652736301403
 20
23.53000233921509
 30
0.0
 11
-41.42601364982893
 21
24.01325174049184
 31
0.0
  0
LINE
  5
26F
330
1F
100
AcDbEntity
  8
破線
100
AcDbLine
 10
-14.82915255613881
 20
44.04764406936391
 30
0.0
 11
-14.82915255613881
 21
44.45961371666252
 31
0.0
  0
LINE
  5
270
330
1F
100
AcDbEntity
  8
破線
100
AcDbLine
 10
-22.40298072630932
 20
79.90362889301326
 30
0.0
 11
-22.40298072630932
 21
61.57862889301324
 31
0.0
  0
LINE
  5
271
330
1F
100
AcDbEntity
  8
破線
100
AcDbLine
 10
-22.40298072630932
 20
45.12862889301326
 30
0.0
 11
-24.04882090284172
 21
44.64124934866392
 31
0.0
  0
LINE
  5
272
330
1F
100
AcDbEntity
  8
破線
100
AcDbLine
 10
-24.04882090284173
 20
79.29124934866393
 30
0.0
 11
-24.04882090284173
 21
78.51600843736264
 31
0.0
  0
LINE
  5
273
330
1F
100
AcDbEntity
  8
破線
100
AcDbLine
 10
-34.03892020985161
 20
47.71600843736258
 30
0.0
 11
-37.6041525561388
 21
47.71600843736258
 31
0.0
  0
LINE
  5
274
330
1F
100
AcDbEntity
  8
破線
100
AcDbLine
 10
14.72766357463968
 20
78.90362889301326
 30
0.0
 11
-1.054152556138829
 21
78.90362889301326
 31
0.0
  0
LINE
  5
275
330
1F
100
AcDbEntity
  8
破線
100
AcDbLine
 10
-22.4029807263093
 20
54.92862889301324
 30
0.0
 11
-37.6041525561388
 21
54.92862889301324
 31
0.0
  0
LINE
  5
276
330
1F
100
AcDbEntity
  8
破線
100
AcDbLine
 10
-22.95753605602687
 20
79.15362889301326
 30
0.0
 11
-22.95753605602687
 21
78.65362889301326
 31
0.0
  0
LINE
  5
277
330
1F
100
AcDbEntity
  8
破線
100
AcDbLine
 10
-22.95753605602685
 20
78.65362889301308
 30
0.0
 11
-24.04882090284168
 21
78.51600843736247
 31
0.0
  0
LINE
  5
278
330
1F
100
AcDbEntity
  8
破線
100
AcDbLine
 10
-22.40298072630935
 20
66.47862889301324
 30
0.0
 11
-37.6041525561388
 21
66.47862889301324
 31
0.0
  0
LINE
  5
279
330
1F
100
AcDbEntity
  8
破線
100
AcDbLine
 10
-51.15948420943587
 20
44.64124934866387
 30
0.0
 11
-37.6041525561388
 21
44.64124934866387
 31
0.0
  0
LINE
  5
27A
330
1F
100
AcDbEntity
  8
破線
100
AcDbLine
 10
-52.80532438596829
 20
45.12862889301323
 30
0.0
 11
-37.6041525561388
 21
45.12862889301323
 31
0.0
  0
LINE
  5
27B
330
1F
100
AcDbEntity
  8
中心線
100
AcDbLine
 10
-37.6041525561388
 20
28.35827765367227
 30
0.0
 11
-37.6041525561388
 21
5.665528113443794
 31
0.0
  0
LINE
  5
27C
330
1F
100
AcDbEntity
  8
外形線
100
AcDbLine
 10
-16.32915255613892
 20
9.74987195936918
 30
0.0
 11
-16.32915255613892
 21
8.49987195936918
 31
0.0
  0
LINE
  5
27D
330
1F
100
AcDbEntity
  8
外形線
100
AcDbLine
 10
-16.97289494964844
 20
9.74987195936918
 30
0.0
 11
-19.32915255613887
 21
9.74987195936918
 31
0.0
  0
LINE
  5
27E
330
1F
100
AcDbEntity
  8
外形線
100
AcDbLine
 10
15.72084744386115
 20
7.099871959369185
 30
0.0
 11
16.39584744386093
 21
7.099871959369185
 31
0.0
  0
LINE
  5
27F
330
1F
100
AcDbEntity
  8
外形線
100
AcDbLine
 10
-16.47915255613893
 20
8.349871959369185
 30
0.0
 11
-16.53773036243717
 21
8.349871959369185
 31
0.0
  0
LINE
  5
280
330
1F
100
AcDbEntity
  8
外形線
100
AcDbLine
 10
14.72084744386115
 20
5.24987195936918
 30
0.0
 11
15.16183044948622
 21
5.24987195936918
 31
0.0
  0
LINE
  5
281
330
1F
100
AcDbEntity
  8
外形線
100
AcDbLine
 10
15.72084744386115
 20
9.74987195936918
 30
0.0
 11
15.72084744386115
 21
7.099871959369185
 31
0.0
  0
LINE
  5
282
330
1F
100
AcDbEntity
  8
外形線
100
AcDbLine
 10
-16.78757806919181
 20
8.591147085193544
 30
0.0
 11
-16.82298632559545
 21
9.605106883874555
 31
0.0
  0
LINE
  5
283
330
1F
100
AcDbEntity
  8
中心線
100
AcDbLine
 10
-51.07645406164246
 20
9.74987195936918
 30
0.0
 11
-37.60415255613869
 21
9.74987195936918
 31
0.0
  0
LINE
  5
284
330
1F
100
AcDbEntity
  8
中心線
100
AcDbLine
 10
-1.054152556138888
 20
28.35827765367227
 30
0.0
 11
-1.054152556138888
 21
5.665528113443794
 31
0.0
  0
LINE
  5
285
330
1F
100
AcDbEntity
  8
中心線
100
AcDbLine
 10
-14.52645406164254
 20
9.74987195936918
 30
0.0
 11
-1.054152556138773
 21
9.74987195936918
 31
0.0
  0
LINE
  5
286
330
1F
100
AcDbEntity
  8
外形線
100
AcDbLine
 10
-16.02706559936462
 20
9.74987195936918
 30
0.0
 11
-16.32915255613892
 21
9.74987195936918
 31
0.0
  0
LINE
  5
287
330
1F
100
AcDbEntity
  8
外形線
100
AcDbLine
 10
-22.8075360560269
 20
9.74987195936918
 30
0.0
 11
-22.78004978956676
 21
9.74987195936918
 31
0.0
  0
LINE
  5
288
330
1F
100
AcDbEntity
  8
中心線
100
AcDbLine
 10
-24.13185105063513
 20
9.74987195936918
 30
0.0
 11
-37.60415255613891
 21
9.74987195936918
 31
0.0
  0
LINE
  5
289
330
1F
100
AcDbEntity
  8
外形線
100
AcDbLine
 10
-22.40298072630932
 20
11.24987195936918
 30
0.0
 11
-22.11527541252679
 21
11.24987195936918
 31
0.0
  0
LINE
  5
28A
330
1F
100
AcDbEntity
  8
外形線
100
AcDbLine
 10
-21.82652737241915
 20
9.894637034863794
 30
0.0
 11
-21.86542770577197
 21
11.00859683354479
 31
0.0
  0
LINE
  5
28B
330
1F
100
AcDbEntity
  8
外形線
100
AcDbLine
 10
-22.40298072630932
 20
11.24987195936918
 30
0.0
 11
-22.11527541252679
 21
11.24987195936918
 31
0.0
  0
LINE
  5
28C
330
1F
100
AcDbEntity
  8
外形線
100
AcDbLine
 10
-22.40298072630933
 20
11.24987195936913
 30
0.0
 11
-23.850200609576
 21
12.08542474854972
 31
0.0
  0
LINE
  5
28D
330
1F
100
AcDbEntity
  8
外形線
100
AcDbLine
 10
-24.02152959120718
 20
12.14173940129037
 30
0.0
 11
-22.94341245438747
 21
9.836329812973907
 31
0.0
  0
LINE
  5
28E
330
1F
100
AcDbEntity
  8
外形線
100
AcDbLine
 10
-21.67661874836631
 20
9.74987195936918
 30
0.0
 11
-19.32915255613887
 21
9.74987195936918
 31
0.0
  0
LINE
  5
28F
330
1F
100
AcDbEntity
  8
外形線
100
AcDbLine
 10
13.91876048708684
 20
9.74987195936918
 30
0.0
 11
14.22084744386115
 21
9.74987195936918
 31
0.0
  0
LINE
  5
290
330
1F
100
AcDbEntity
  8
中心線
100
AcDbLine
 10
12.41814894936476
 20
9.74987195936918
 30
0.0
 11
-1.054152556139002
 21
9.74987195936918
 31
0.0
  0
LINE
  5
291
330
1F
100
AcDbEntity
  8
外形線
100
AcDbLine
 10
-53.38683304769019
 20
9.74987195936918
 30
0.0
 11
-55.38683304769019
 21
9.74987195936918
 31
0.0
  0
LINE
  5
292
330
1F
100
AcDbEntity
  8
外形線
100
AcDbLine
 10
14.67927295691434
 20
8.591147085193526
 30
0.0
 11
14.71468121331798
 21
9.605106883874523
 31
0.0
  0
LINE
  5
293
330
1F
100
AcDbEntity
  8
外形線
100
AcDbLine
 10
-51.18677552107027
 20
12.14173940129025
 30
0.0
 11
-52.26489265788999
 21
9.836329812973769
 31
0.0
  0
LINE
  5
294
330
1F
100
AcDbEntity
  8
破線
100
AcDbLine
 10
-52.03764225890996
 20
14.74987195936918
 30
0.0
 11
-53.45734845111482
 21
14.74987195936918
 31
0.0
  0
LINE
  5
295
330
1F
100
AcDbEntity
  8
外形線
100
AcDbLine
 10
-52.80532438596831
 20
11.24987195936916
 30
0.0
 11
-51.35810450270164
 21
12.08542474854975
 31
0.0
  0
LINE
  5
296
330
1F
100
AcDbEntity
  8
外形線
100
AcDbLine
 10
-52.80532438596829
 20
11.24987195936918
 30
0.0
 11
-53.09302969975078
 21
11.24987195936918
 31
0.0
  0
LINE
  5
297
330
1F
100
AcDbEntity
  8
外形線
100
AcDbLine
 10
14.37084744386115
 20
8.349871959369185
 30
0.0
 11
14.42942525015937
 21
8.349871959369185
 31
0.0
  0
LINE
  5
298
330
1F
100
AcDbEntity
  8
外形線
100
AcDbLine
 10
14.22084744386115
 20
9.74987195936918
 30
0.0
 11
14.22084744386115
 21
5.749871959369183
 31
0.0
  0
LINE
  5
299
330
1F
100
AcDbEntity
  8
外形線
100
AcDbLine
 10
-53.38683304769015
 20
9.749871959369166
 30
0.0
 11
-53.34287740650553
 21
11.00859683354479
 31
0.0
  0
LINE
  5
29A
330
1F
100
AcDbEntity
  8
外形線
100
AcDbLine
 10
-52.80532438596829
 20
11.24987195936918
 30
0.0
 11
-53.09302969975078
 21
11.24987195936918
 31
0.0
  0
LINE
  5
29B
330
1F
100
AcDbEntity
  8
外形線
100
AcDbLine
 10
14.86458983737066
 20
9.74987195936918
 30
0.0
 11
15.72084744386103
 21
9.74987195936918
 31
0.0
  0
LINE
  5
29C
330
1F
100
AcDbEntity
  8
外形線
100
AcDbLine
 10
-54.11512534826226
 20
12.24987195936918
 30
0.0
 11
-54.87915255613874
 21
12.24987195936918
 31
0.0
  0
LINE
  5
29D
330
1F
100
AcDbEntity
  8
破線
100
AcDbLine
 10
14.06440819358372
 20
68.22862889301325
 30
0.0
 11
-1.054152556138829
 21
68.22862889301325
 31
0.0
  0
LINE
  5
29E
330
1F
100
AcDbEntity
  8
外形線
100
AcDbLine
 10
-52.40076905625072
 20
9.74987195936918
 30
0.0
 11
-52.42825532271078
 21
9.74987195936918
 31
0.0
  0
LINE
  5
29F
330
1F
100
AcDbEntity
  8
外形線
100
AcDbLine
 10
-54.37915255613878
 20
44.67862889301324
 30
0.0
 11
-53.45734845111482
 21
44.67862889301324
 31
0.0
  0
LINE
  5
2A0
330
1F
100
AcDbEntity
  8
破線
100
AcDbLine
 10
-34.03892020985161
 20
48.49124934866387
 30
0.0
 11
-37.6041525561388
 21
48.49124934866387
 31
0.0
  0
LINE
  5
2A1
330
1F
100
AcDbEntity
  8
破線
100
AcDbLine
 10
-22.40298072630932
 20
55.55362889301324
 30
0.0
 11
-22.95753605602687
 21
55.55362889301324
 31
0.0
  0
LINE
  5
2A2
330
1F
100
AcDbEntity
  8
破線
100
AcDbLine
 10
-19.33683304769022
 20
61.57862889301324
 30
0.0
 11
-1.054152556138829
 21
61.57862889301324
 31
0.0
  0
LINE
  5
2A3
330
1F
100
AcDbEntity
  8
破線
100
AcDbLine
 10
-22.40298072630932
 20
43.25362889301323
 30
0.0
 11
-21.82147206458743
 21
43.25362889301323
 31
0.0
  0
LINE
  5
2A4
330
1F
100
AcDbEntity
  8
破線
100
AcDbLine
 10
14.06440819358372
 20
66.47862889301324
 30
0.0
 11
-1.054152556138829
 21
66.47862889301324
 31
0.0
  0
LINE
  5
2A5
330
1F
100
AcDbEntity
  8
破線
100
AcDbLine
 10
-34.0389202098515
 20
70.81600843736268
 30
0.0
 11
-33.65069164219771
 21
70.3286288930133
 31
0.0
  0
LINE
  5
2A6
330
1F
100
AcDbEntity
  8
破線
100
AcDbLine
 10
-22.40298072630932
 20
45.12862889301323
 30
0.0
 11
-37.6041525561388
 21
45.12862889301323
 31
0.0
  0
LINE
  5
2A7
330
1F
100
AcDbEntity
  8
破線
100
AcDbLine
 10
-22.40298072630932
 20
78.65362889301326
 30
0.0
 11
-22.95753605602687
 21
78.65362889301326
 31
0.0
  0
LINE
  5
2A8
330
1F
100
AcDbEntity
  8
破線
100
AcDbLine
 10
12.72084744386115
 20
79.10961371666258
 30
0.0
 11
12.72084744386115
 21
78.69764406936397
 31
0.0
  0
LINE
  5
2A9
330
1F
100
AcDbEntity
  8
破線
100
AcDbLine
 10
-24.04882090284172
 20
79.29124934866393
 30
0.0
 11
-22.40298072630932
 21
79.77862889301326
 31
0.0
  0
LINE
  5
2AA
330
1F
100
AcDbEntity
  8
破線
100
AcDbLine
 10
-24.04882090284173
 20
79.29124934866393
 30
0.0
 11
-37.6041525561388
 21
79.29124934866393
 31
0.0
  0
LINE
  5
2AB
330
1F
100
AcDbEntity
  8
破線
100
AcDbLine
 10
-33.65069164219779
 20
75.92862889301329
 30
0.0
 11
-37.6041525561388
 21
75.92862889301329
 31
0.0
  0
LINE
  5
2AC
330
1F
100
AcDbEntity
  8
破線
100
AcDbLine
 10
-22.40298072630932
 20
79.15362889301326
 30
0.0
 11
-22.95753605602687
 21
79.15362889301326
 31
0.0
  0
LINE
  5
2AD
330
1F
100
AcDbEntity
  8
破線
100
AcDbLine
 10
-24.04882090284173
 20
55.41600843736259
 30
0.0
 11
-37.6041525561388
 21
55.41600843736259
 31
0.0
  0
LINE
  5
2AE
330
1F
100
AcDbEntity
  8
破線
100
AcDbLine
 10
-34.03892020985161
 20
70.8160084373626
 30
0.0
 11
-37.6041525561388
 21
70.8160084373626
 31
0.0
  0
LINE
  5
2AF
330
1F
100
AcDbEntity
  8
破線
100
AcDbLine
 10
-4.619384902426046
 20
47.71600843736258
 30
0.0
 11
-4.619384902426046
 21
48.49124934866387
 31
0.0
  0
LINE
  5
2B0
330
1F
100
AcDbEntity
  8
破線
100
AcDbLine
 10
-22.40298072630931
 20
56.67862889301327
 30
0.0
 11
-24.04882090284171
 21
56.19124934866391
 31
0.0
  0
LINE
  5
2B1
330
1F
100
AcDbEntity
  8
破線
100
AcDbLine
 10
-21.82233642536028
 20
55.80362889301324
 30
0.0
 11
-25.19397105522324
 21
55.80362889301324
 31
0.0
  0
LINE
  5
2B2
330
1F
100
AcDbEntity
  8
破線
100
AcDbLine
 10
-22.95753605602695
 20
56.05362889301301
 30
0.0
 11
-24.04882090284178
 21
56.19124934866364
 31
0.0
  0
LINE
  5
2B3
330
1F
100
AcDbEntity
  8
破線
100
AcDbLine
 10
-22.40298072630932
 20
56.05362889301324
 30
0.0
 11
-22.95753605602687
 21
56.05362889301324
 31
0.0
  0
LINE
  5
2B4
330
1F
100
AcDbEntity
  8
破線
100
AcDbLine
 10
-24.04882090284173
 20
56.19124934866388
 30
0.0
 11
-37.6041525561388
 21
56.19124934866388
 31
0.0
  0
LINE
  5
2B5
330
1F
100
AcDbEntity
  8
破線
100
AcDbLine
 10
2.89930835780217
 20
70.32862889301327
 30
0.0
 11
-1.054152556138829
 21
70.32862889301327
 31
0.0
  0
LINE
  5
2B6
330
1F
100
AcDbEntity
  8
破線
100
AcDbLine
 10
-41.55761347007982
 20
51.07862889301322
 30
0.0
 11
-37.6041525561388
 21
51.07862889301322
 31
0.0
  0
LINE
  5
2B7
330
1F
100
AcDbEntity
  8
破線
100
AcDbLine
 10
-52.80532438596829
 20
78.02862889301332
 30
0.0
 11
-51.15948420943589
 21
78.51600843736267
 31
0.0
  0
LINE
  5
2B8
330
1F
100
AcDbEntity
  8
破線
100
AcDbLine
 10
-52.80532438596829
 20
78.65362889301326
 30
0.0
 11
-52.2507690562507
 21
78.65362889301326
 31
0.0
  0
LINE
  5
2B9
330
1F
100
AcDbEntity
  8
破線
100
AcDbLine
 10
-21.82147206458743
 20
79.90362889301326
 30
0.0
 11
-21.82147206458743
 21
61.57862889301324
 31
0.0
  0
LINE
  5
2BA
330
1F
100
AcDbEntity
  8
破線
100
AcDbLine
 10
-15.00189830754509
 20
79.3473778457364
 30
0.0
 11
-15.98366105332636
 21
79.66637189886842
 31
0.0
  0
LINE
  5
2BB
330
1F
100
AcDbEntity
  8
破線
100
AcDbLine
 10
2.89930835780217
 20
75.92862889301329
 30
0.0
 11
-1.054152556138829
 21
75.92862889301329
 31
0.0
  0
LINE
  5
2BC
330
1F
100
AcDbEntity
  8
外形線
100
AcDbLine
 10
-37.6041525561388
 20
81.40362889301327
 30
0.0
 11
-21.57915255613881
 21
81.40362889301327
 31
0.0
  0
LINE
  5
2BD
330
1F
100
AcDbEntity
  8
破線
100
AcDbLine
 10
-16.17271330586141
 20
56.67862889301323
 30
0.0
 11
-1.054152556138829
 21
56.67862889301323
 31
0.0
  0
LINE
  5
2BE
330
1F
100
AcDbEntity
  8
破線
100
AcDbLine
 10
12.72084744386115
 20
67.74124934866392
 30
0.0
 11
-1.054152556138829
 21
67.74124934866392
 31
0.0
  0
LINE
  5
2BF
330
1F
100
AcDbEntity
  8
破線
100
AcDbLine
 10
-24.04882090284173
 20
78.51600843736264
 30
0.0
 11
-37.6041525561388
 21
78.51600843736264
 31
0.0
  0
LINE
  5
2C0
330
1F
100
AcDbEntity
  8
破線
100
AcDbLine
 10
-51.15948420943587
 20
43.86600843736259
 30
0.0
 11
-37.6041525561388
 21
43.86600843736259
 31
0.0
  0
LINE
  5
2C1
330
1F
100
AcDbEntity
  8
外形線
100
AcDbLine
 10
-37.6041525561388
 20
41.75362889301323
 30
0.0
 11
-53.62915255613878
 21
41.75362889301323
 31
0.0
  0
LINE
  5
2C2
330
1F
100
AcDbEntity
  8
破線
100
AcDbLine
 10
-14.82915255613881
 20
55.41600843736259
 30
0.0
 11
-1.054152556138829
 21
55.41600843736259
 31
0.0
  0
LINE
  5
2C3
330
1F
100
AcDbEntity
  8
破線
100
AcDbLine
 10
-22.40298072630932
 20
79.77862889301326
 30
0.0
 11
-37.6041525561388
 21
79.77862889301326
 31
0.0
  0
LINE
  5
2C4
330
1F
100
AcDbEntity
  8
破線
100
AcDbLine
 10
2.511079790148385
 20
74.6660084373626
 30
0.0
 11
-1.054152556138829
 21
74.6660084373626
 31
0.0
  0
LINE
  5
2C5
330
1F
100
AcDbEntity
  8
破線
100
AcDbLine
 10
-34.03892020985161
 20
71.59124934866392
 30
0.0
 11
-34.03892020985161
 21
70.81600843736262
 31
0.0
  0
LINE
  5
2C6
330
1F
100
AcDbEntity
  8
破線
100
AcDbLine
 10
2.511079790148385
 20
70.8160084373626
 30
0.0
 11
-1.054152556138829
 21
70.8160084373626
 31
0.0
  0
LINE
  5
2C7
330
1F
100
AcDbEntity
  8
破線
100
AcDbLine
 10
-22.40298072630932
 20
67.60362889301325
 30
0.0
 11
-22.95753605602687
 21
67.60362889301325
 31
0.0
  0
LINE
  5
2C8
330
1F
100
AcDbEntity
  8
破線
100
AcDbLine
 10
-22.4029807263093
 20
66.47862889301335
 30
0.0
 11
-24.04882090284173
 21
66.96600843736272
 31
0.0
  0
LINE
  5
2C9
330
1F
100
AcDbEntity
  8
破線
100
AcDbLine
 10
-21.82233642536028
 20
67.35362889301325
 30
0.0
 11
-25.19397105522324
 21
67.35362889301325
 31
0.0
  0
LINE
  5
2CA
330
1F
100
AcDbEntity
  8
破線
100
AcDbLine
 10
-15.98366105332634
 20
78.14088588715812
 30
0.0
 11
-15.00189830754508
 21
78.45987994029013
 31
0.0
  0
LINE
  5
2CB
330
1F
100
AcDbEntity
  8
破線
100
AcDbLine
 10
-15.00189830754509
 20
43.80987994029012
 30
0.0
 11
-15.98366105332636
 21
43.4908858871581
 31
0.0
  0
LINE
  5
2CC
330
1F
100
AcDbEntity
  8
破線
100
AcDbLine
 10
-22.95753605602688
 20
67.10362889301308
 30
0.0
 11
-24.04882090284175
 21
66.96600843736246
 31
0.0
  0
LINE
  5
2CD
330
1F
100
AcDbEntity
  8
破線
100
AcDbLine
 10
-41.16938490242604
 20
51.56600843736256
 30
0.0
 11
-41.55761347007982
 21
51.07862889301324
 31
0.0
  0
LINE
  5
2CE
330
1F
100
AcDbEntity
  8
破線
100
AcDbLine
 10
-41.16938490242596
 20
48.49124934866388
 30
0.0
 11
-41.55761347007976
 21
48.97862889301324
 31
0.0
  0
LINE
  5
2CF
330
1F
100
AcDbEntity
  8
破線
100
AcDbLine
 10
-22.95753605602687
 20
67.60362889301325
 30
0.0
 11
-22.95753605602687
 21
67.10362889301325
 31
0.0
  0
LINE
  5
2D0
330
1F
100
AcDbEntity
  8
破線
100
AcDbLine
 10
-41.55761347007982
 20
47.22862889301322
 30
0.0
 11
-41.55761347007982
 21
48.97862889301322
 31
0.0
  0
LINE
  5
2D1
330
1F
100
AcDbEntity
  8
破線
100
AcDbLine
 10
-41.16938490242602
 20
75.44124934866392
 30
0.0
 11
-41.16938490242602
 21
74.66600843736263
 31
0.0
  0
LINE
  5
2D2
330
1F
100
AcDbEntity
  8
破線
100
AcDbLine
 10
14.06440819358372
 20
56.67862889301323
 30
0.0
 11
-1.054152556138829
 21
56.67862889301323
 31
0.0
  0
LINE
  5
2D3
330
1F
100
AcDbEntity
  8
破線
100
AcDbLine
 10
-34.03892020985161
 20
48.4912493486639
 30
0.0
 11
-33.6506916421978
 21
48.97862889301324
 31
0.0
  0
LINE
  5
2D4
330
1F
100
AcDbEntity
  8
破線
100
AcDbLine
 10
12.72084744386115
 20
44.04764406936391
 30
0.0
 11
12.72084744386115
 21
44.45961371666252
 31
0.0
  0
LINE
  5
2D5
330
1F
100
AcDbEntity
  8
破線
100
AcDbLine
 10
-52.80532438596829
 20
79.15362889301326
 30
0.0
 11
-52.2507690562507
 21
79.15362889301326
 31
0.0
  0
LINE
  5
2D6
330
1F
100
AcDbEntity
  8
破線
100
AcDbLine
 10
-41.55761347007982
 20
75.92862889301329
 30
0.0
 11
-41.55761347007982
 21
74.17862889301327
 31
0.0
  0
LINE
  5
2D7
330
1F
100
AcDbEntity
  8
破線
100
AcDbLine
 10
-15.00189830754509
 20
55.35987994029014
 30
0.0
 11
-15.98366105332638
 21
55.04088588715811
 31
0.0
  0
LINE
  5
2D8
330
1F
100
AcDbEntity
  8
破線
100
AcDbLine
 10
-41.16938490242602
 20
47.71600843736258
 30
0.0
 11
-41.16938490242602
 21
48.49124934866387
 31
0.0
  0
LINE
  5
2D9
330
1F
100
AcDbEntity
  8
破線
100
AcDbLine
 10
-52.80532438596829
 20
44.00362889301322
 30
0.0
 11
-52.2507690562507
 21
44.00362889301322
 31
0.0
  0
LINE
  5
2DA
330
1F
100
AcDbEntity
  8
破線
100
AcDbLine
 10
-51.15948420943587
 20
55.41600843736258
 30
0.0
 11
-52.80532438596829
 21
54.92862889301322
 31
0.0
  0
LINE
  5
2DB
330
1F
100
AcDbEntity
  8
破線
100
AcDbLine
 10
-1.054152556138829
 20
38.68552514966353
 30
0.0
 11
-1.054152556138829
 21
61.57862889301324
 31
0.0
  0
LINE
  5
2DC
330
1F
100
AcDbEntity
  8
破線
100
AcDbLine
 10
2.511079790148385
 20
52.3412493486639
 30
0.0
 11
-1.054152556138829
 21
52.3412493486639
 31
0.0
  0
LINE
  5
2DD
330
1F
100
AcDbEntity
  8
破線
100
AcDbLine
 10
-52.25076905625066
 20
44.50362889301317
 30
0.0
 11
-51.15948420943585
 21
44.64124934866378
 31
0.0
  0
LINE
  5
2DE
330
1F
100
AcDbEntity
  8
破線
100
AcDbLine
 10
-34.03892020985154
 20
51.56600843736263
 30
0.0
 11
-33.65069164219775
 21
51.07862889301327
 31
0.0
  0
LINE
  5
2DF
330
1F
100
AcDbEntity
  8
破線
100
AcDbLine
 10
-4.619384902426046
 20
75.44124934866392
 30
0.0
 11
-4.619384902426046
 21
74.66600843736263
 31
0.0
  0
LINE
  5
2E0
330
1F
100
AcDbEntity
  8
破線
100
AcDbLine
 10
-14.82915255613881
 20
67.74124934866392
 30
0.0
 11
-1.054152556138829
 21
67.74124934866392
 31
0.0
  0
LINE
  5
2E1
330
1F
100
AcDbEntity
  8
破線
100
AcDbLine
 10
2.89930835780217
 20
52.82862889301322
 30
0.0
 11
-1.054152556138829
 21
52.82862889301322
 31
0.0
  0
LINE
  5
2E2
330
1F
100
AcDbEntity
  8
破線
100
AcDbLine
 10
-22.40298072630932
 20
79.90362889301326
 30
0.0
 11
-21.82147206458743
 21
79.90362889301326
 31
0.0
  0
LINE
  5
2E3
330
1F
100
AcDbEntity
  8
破線
100
AcDbLine
 10
-16.17271330586141
 20
79.77862889301326
 30
0.0
 11
-1.054152556138829
 21
79.77862889301326
 31
0.0
  0
LINE
  5
2E4
330
1F
100
AcDbEntity
  8
破線
100
AcDbLine
 10
-5.007613470079861
 20
75.92862889301329
 30
0.0
 11
-5.007613470079861
 21
74.17862889301327
 31
0.0
  0
LINE
  5
2E5
330
1F
100
AcDbEntity
  8
破線
100
AcDbLine
 10
-33.65069164219779
 20
51.07862889301322
 30
0.0
 11
-33.65069164219779
 21
52.82862889301322
 31
0.0
  0
LINE
  5
2E6
330
1F
100
AcDbEntity
  8
破線
100
AcDbLine
 10
-17.82915255613881
 20
80.65362889301329
 30
0.0
 11
-17.82915255613881
 21
80.40362889301329
 31
0.0
  0
LINE
  5
2E7
330
1F
100
AcDbEntity
  8
破線
100
AcDbLine
 10
-21.82233642536028
 20
67.35362889301325
 30
0.0
 11
-25.19397105522324
 21
67.35362889301325
 31
0.0
  0
LINE
  5
2E8
330
1F
100
AcDbEntity
  8
破線
100
AcDbLine
 10
-22.32915255613875
 20
41.75362889301323
 30
0.0
 11
-22.32915255613875
 21
43.25362889301323
 31
0.0
  0
LINE
  5
2E9
330
1F
100
AcDbEntity
  8
破線
100
AcDbLine
 10
-52.80532438596829
 20
43.37862889301322
 30
0.0
 11
-37.6041525561388
 21
43.37862889301322
 31
0.0
  0
LINE
  5
2EA
330
1F
100
AcDbEntity
  8
破線
100
AcDbLine
 10
-22.95753605602683
 20
79.15362889301377
 30
0.0
 11
-24.04882090284164
 21
79.29124934866442
 31
0.0
  0
LINE
  5
2EB
330
1F
100
AcDbEntity
  8
破線
100
AcDbLine
 10
2.511079790148385
 20
75.44124934866392
 30
0.0
 11
-1.054152556138829
 21
75.44124934866392
 31
0.0
  0
LINE
  5
2EC
330
1F
100
AcDbEntity
  8
破線
100
AcDbLine
 10
-34.03892020985165
 20
71.59124934866389
 30
0.0
 11
-33.65069164219786
 21
72.07862889301326
 31
0.0
  0
LINE
  5
2ED
330
1F
100
AcDbEntity
  8
破線
100
AcDbLine
 10
-41.16938490242602
 20
51.5660084373626
 30
0.0
 11
-37.6041525561388
 21
51.5660084373626
 31
0.0
  0
LINE
  5
2EE
330
1F
100
AcDbEntity
  8
破線
100
AcDbLine
 10
-24.04882090284177
 20
67.7412493486639
 30
0.0
 11
-22.40298072630936
 21
68.22862889301325
 31
0.0
  0
LINE
  5
2EF
330
1F
100
AcDbEntity
  8
破線
100
AcDbLine
 10
-20.82915255613881
 20
80.65362889301329
 30
0.0
 11
-20.82915255613881
 21
80.40362889301329
 31
0.0
  0
LINE
  5
2F0
330
1F
100
AcDbEntity
  8
破線
100
AcDbLine
 10
-24.04882090284173
 20
66.96600843736263
 30
0.0
 11
-37.6041525561388
 21
66.96600843736263
 31
0.0
  0
LINE
  5
2F1
330
1F
100
AcDbEntity
  8
破線
100
AcDbLine
 10
-4.619384902426074
 20
70.8160084373626
 30
0.0
 11
-5.007613470079868
 21
70.32862889301326
 31
0.0
  0
LINE
  5
2F2
330
1F
100
AcDbEntity
  8
破線
100
AcDbLine
 10
-41.16938490242596
 20
52.3412493486639
 30
0.0
 11
-41.55761347007976
 21
52.82862889301326
 31
0.0
  0
LINE
  5
2F3
330
1F
100
AcDbEntity
  8
破線
100
AcDbLine
 10
-52.2507690562507
 20
44.00362889301348
 30
0.0
 11
-51.15948420943587
 21
43.86600843736282
 31
0.0
  0
LINE
  5
2F4
330
1F
100
AcDbEntity
  8
外形線
100
AcDbLine
 10
-54.37915255613878
 20
42.50362889301323
 30
0.0
 11
-54.37915255613878
 21
42.75362889301322
 31
0.0
  0
LINE
  5
2F5
330
1F
100
AcDbEntity
  8
外形線
100
AcDbLine
 10
-1.054152556138829
 20
41.75362889301323
 30
0.0
 11
-17.07915255613881
 21
41.75362889301323
 31
0.0
  0
LINE
  5
2F6
330
1F
100
AcDbEntity
  8
破線
100
AcDbLine
 10
-1.054152556138829
 20
84.47173263636296
 30
0.0
 11
-1.054152556138829
 21
61.57862889301324
 31
0.0
  0
LINE
  5
2F7
330
1F
100
AcDbEntity
  8
破線
100
AcDbLine
 10
-15.0018983075451
 20
67.79737784573637
 30
0.0
 11
-15.98366105332636
 21
68.11637189886837
 31
0.0
  0
LINE
  5
2F8
330
1F
100
AcDbEntity
  8
破線
100
AcDbLine
 10
-22.32915255613875
 20
81.40362889301327
 30
0.0
 11
-22.32915255613875
 21
79.90362889301326
 31
0.0
  0
LINE
  5
2F9
330
1F
100
AcDbEntity
  8
破線
100
AcDbLine
 10
-53.38683304769018
 20
41.75362889301323
 30
0.0
 11
-53.38683304769018
 21
46.17862889301323
 31
0.0
  0
LINE
  5
2FA
330
1F
100
AcDbEntity
  8
外形線
100
AcDbLine
 10
-20.82915255613881
 20
80.65362889301326
 30
0.0
 11
-20.82915255613881
 21
61.57862889301324
 31
0.0
  0
LINE
  5
2FB
330
1F
100
AcDbEntity
  8
中心線
100
AcDbLine
 10
-55.25759597832139
 20
61.57862889301324
 30
0.0
 11
-37.6041525561388
 21
61.57862889301324
 31
0.0
  0
LINE
  5
2FC
330
1F
100
AcDbEntity
  8
破線
100
AcDbLine
 10
-22.40298072630932
 20
78.02862889301326
 30
0.0
 11
-37.6041525561388
 21
78.02862889301326
 31
0.0
  0
LINE
  5
2FD
330
1F
100
AcDbEntity
  8
破線
100
AcDbLine
 10
-24.04882090284173
 20
67.74124934866392
 30
0.0
 11
-37.6041525561388
 21
67.74124934866392
 31
0.0
  0
LINE
  5
2FE
330
1F
100
AcDbEntity
  8
破線
100
AcDbLine
 10
-34.03892020985161
 20
51.56600843736256
 30
0.0
 11
-34.03892020985161
 21
52.34124934866386
 31
0.0
  0
LINE
  5
2FF
330
1F
100
AcDbEntity
  8
破線
100
AcDbLine
 10
-16.17271330586141
 20
54.92862889301324
 30
0.0
 11
-1.054152556138829
 21
54.92862889301324
 31
0.0
  0
LINE
  5
300
330
1F
100
AcDbEntity
  8
破線
100
AcDbLine
 10
-22.4029807263093
 20
68.22862889301325
 30
0.0
 11
-37.6041525561388
 21
68.22862889301325
 31
0.0
  0
LINE
  5
301
330
1F
100
AcDbEntity
  8
破線
100
AcDbLine
 10
-33.65069164219779
 20
52.82862889301322
 30
0.0
 11
-37.6041525561388
 21
52.82862889301322
 31
0.0
  0
LINE
  5
302
330
1F
100
AcDbEntity
  8
外形線
100
AcDbLine
 10
-54.37915255613878
 20
46.17862889301323
 30
0.0
 11
-54.37915255613878
 21
53.87862889301326
 31
0.0
  0
LINE
  5
303
330
1F
100
AcDbEntity
  8
破線
100
AcDbLine
 10
-53.45734845111482
 20
46.17862889301323
 30
0.0
 11
-52.03764225890996
 21
46.17862889301323
 31
0.0
  0
LINE
  5
304
330
1F
100
AcDbEntity
  8
破線
100
AcDbLine
 10
-22.4029807263093
 20
78.02862889301334
 30
0.0
 11
-24.04882090284171
 21
78.51600843736273
 31
0.0
  0
LINE
  5
305
330
1F
100
AcDbEntity
  8
破線
100
AcDbLine
 10
-34.03892020985161
 20
52.3412493486639
 30
0.0
 11
-37.6041525561388
 21
52.3412493486639
 31
0.0
  0
LINE
  5
306
330
1F
100
AcDbEntity
  8
破線
100
AcDbLine
 10
-33.65069164219779
 20
47.22862889301322
 30
0.0
 11
-37.6041525561388
 21
47.22862889301322
 31
0.0
  0
LINE
  5
307
330
1F
100
AcDbEntity
  8
破線
100
AcDbLine
 10
14.72766357463968
 20
44.25362889301323
 30
0.0
 11
-1.054152556138829
 21
44.25362889301323
 31
0.0
  0
LINE
  5
308
330
1F
100
AcDbEntity
  8
破線
100
AcDbLine
 10
2.89930835780217
 20
47.22862889301322
 30
0.0
 11
-1.054152556138829
 21
47.22862889301322
 31
0.0
  0
LINE
  5
309
330
1F
100
AcDbEntity
  8
破線
100
AcDbLine
 10
2.511079790148385
 20
47.71600843736258
 30
0.0
 11
-1.054152556138829
 21
47.71600843736258
 31
0.0
  0
LINE
  5
30A
330
1F
100
AcDbEntity
  8
破線
100
AcDbLine
 10
2.511079790148385
 20
48.49124934866387
 30
0.0
 11
-1.054152556138829
 21
48.49124934866387
 31
0.0
  0
LINE
  5
30B
330
1F
100
AcDbEntity
  8
破線
100
AcDbLine
 10
-16.17271330586141
 20
66.47862889301324
 30
0.0
 11
-1.054152556138829
 21
66.47862889301324
 31
0.0
  0
LINE
  5
30C
330
1F
100
AcDbEntity
  8
破線
100
AcDbLine
 10
-5.007613470079861
 20
47.22862889301322
 30
0.0
 11
-5.007613470079861
 21
48.97862889301322
 31
0.0
  0
LINE
  5
30D
330
1F
100
AcDbEntity
  8
破線
100
AcDbLine
 10
-17.82915255613881
 20
42.50362889301323
 30
0.0
 11
-17.82915255613881
 21
42.75362889301322
 31
0.0
  0
LINE
  5
30E
330
1F
100
AcDbEntity
  8
破線
100
AcDbLine
 10
-14.82915255613881
 20
79.10961371666258
 30
0.0
 11
-14.82915255613881
 21
78.69764406936397
 31
0.0
  0
LINE
  5
30F
330
1F
100
AcDbEntity
  8
破線
100
AcDbLine
 10
-52.80532438596829
 20
44.50362889301323
 30
0.0
 11
-52.2507690562507
 21
44.50362889301323
 31
0.0
  0
LINE
  5
310
330
1F
100
AcDbEntity
  8
破線
100
AcDbLine
 10
-16.17271330586141
 20
68.22862889301325
 30
0.0
 11
-1.054152556138829
 21
68.22862889301325
 31
0.0
  0
LINE
  5
311
330
1F
100
AcDbEntity
  8
外形線
100
AcDbLine
 10
-1.054152556138829
 20
81.40362889301327
 30
0.0
 11
-17.07915255613881
 21
81.40362889301327
 31
0.0
  0
LINE
  5
312
330
1F
100
AcDbEntity
  8
破線
100
AcDbLine
 10
-16.17271330586141
 20
43.37862889301322
 30
0.0
 11
-1.054152556138829
 21
43.37862889301322
 31
0.0
  0
LINE
  5
313
330
1F
100
AcDbEntity
  8
外形線
100
AcDbLine
 10
-20.82915255613881
 20
42.50362889301323
 30
0.0
 11
-20.82915255613881
 21
61.57862889301324
 31
0.0
  0
LINE
  5
314
330
1F
100
AcDbEntity
  8
破線
100
AcDbLine
 10
-4.619384902425978
 20
52.3412493486639
 30
0.0
 11
-5.007613470079782
 21
52.82862889301327
 31
0.0
  0
LINE
  5
315
330
1F
100
AcDbEntity
  8
破線
100
AcDbLine
 10
14.67084744386119
 20
41.75362889301323
 30
0.0
 11
14.67084744386119
 21
45.92862889301324
 31
0.0
  0
LINE
  5
316
330
1F
100
AcDbEntity
  8
破線
100
AcDbLine
 10
-51.15948420943588
 20
67.74124934866397
 30
0.0
 11
-52.80532438596829
 21
68.22862889301333
 31
0.0
  0
LINE
  5
317
330
1F
100
AcDbEntity
  8
破線
100
AcDbLine
 10
14.67084744386119
 20
54.12862889301326
 30
0.0
 11
14.67084744386119
 21
61.57862889301324
 31
0.0
  0
LINE
  5
318
330
1F
100
AcDbEntity
  8
破線
100
AcDbLine
 10
-16.17271330586141
 20
45.12862889301323
 30
0.0
 11
-1.054152556138829
 21
45.12862889301323
 31
0.0
  0
LINE
  5
319
330
1F
100
AcDbEntity
  8
破線
100
AcDbLine
 10
14.22084744386119
 20
45.92862889301324
 30
0.0
 11
14.71973652114966
 21
45.92862889301324
 31
0.0
  0
LINE
  5
31A
330
1F
100
AcDbEntity
  8
破線
100
AcDbLine
 10
14.22084744386119
 20
54.12862889301326
 30
0.0
 11
14.71973652114966
 21
54.12862889301326
 31
0.0
  0
LINE
  5
31B
330
1F
100
AcDbEntity
  8
破線
100
AcDbLine
 10
-41.55761347007982
 20
51.07862889301322
 30
0.0
 11
-41.55761347007982
 21
52.82862889301322
 31
0.0
  0
LINE
  5
31C
330
1F
100
AcDbEntity
  8
破線
100
AcDbLine
 10
-16.77915255613888
 20
43.75362889301323
 30
0.0
 11
-16.77915255613888
 21
61.57862889301324
 31
0.0
  0
LINE
  5
31D
330
1F
100
AcDbEntity
  8
外形線
100
AcDbLine
 10
-54.37915255613878
 20
69.27862889301326
 30
0.0
 11
-53.45734845111482
 21
69.27862889301326
 31
0.0
  0
LINE
  5
31E
330
1F
100
AcDbEntity
  8
破線
100
AcDbLine
 10
-4.619384902425911
 20
48.49124934866399
 30
0.0
 11
-5.007613470079713
 21
48.97862889301334
 31
0.0
  0
LINE
  5
31F
330
1F
100
AcDbEntity
  8
破線
100
AcDbLine
 10
14.71973652114966
 20
54.12862889301326
 30
0.0
 11
14.71973652114966
 21
61.57862889301324
 31
0.0
  0
LINE
  5
320
330
1F
100
AcDbEntity
  8
破線
100
AcDbLine
 10
15.48334744386119
 20
46.42862889301324
 30
0.0
 11
15.48334744386119
 21
53.62862889301325
 31
0.0
  0
LINE
  5
321
330
1F
100
AcDbEntity
  8
破線
100
AcDbLine
 10
-4.619384902426058
 20
51.56600843736251
 30
0.0
 11
-5.007613470079853
 21
51.07862889301316
 31
0.0
  0
LINE
  5
322
330
1F
100
AcDbEntity
  8
外形線
100
AcDbLine
 10
-17.82915255613881
 20
42.50362889301323
 30
0.0
 11
-17.82915255613881
 21
61.57862889301324
 31
0.0
  0
LINE
  5
323
330
1F
100
AcDbEntity
  8
破線
100
AcDbLine
 10
2.89930835780217
 20
47.22862889301322
 30
0.0
 11
2.89930835780217
 21
48.97862889301322
 31
0.0
  0
LINE
  5
324
330
1F
100
AcDbEntity
  8
破線
100
AcDbLine
 10
2.511079790148385
 20
47.71600843736258
 30
0.0
 11
2.511079790148385
 21
48.49124934866387
 31
0.0
  0
LINE
  5
325
330
1F
100
AcDbEntity
  8
破線
100
AcDbLine
 10
2.511079790148365
 20
52.34124934866385
 30
0.0
 11
2.899308357802174
 21
52.82862889301322
 31
0.0
  0
LINE
  5
326
330
1F
100
AcDbEntity
  8
破線
100
AcDbLine
 10
-5.007613470079861
 20
51.07862889301322
 30
0.0
 11
-5.007613470079861
 21
52.82862889301322
 31
0.0
  0
LINE
  5
327
330
1F
100
AcDbEntity
  8
破線
100
AcDbLine
 10
-4.619384902426046
 20
51.56600843736256
 30
0.0
 11
-4.619384902426046
 21
52.34124934866386
 31
0.0
  0
LINE
  5
328
330
1F
100
AcDbEntity
  8
破線
100
AcDbLine
 10
-41.16938490242602
 20
51.56600843736256
 30
0.0
 11
-41.16938490242602
 21
52.34124934866386
 31
0.0
  0
LINE
  5
329
330
1F
100
AcDbEntity
  8
外形線
100
AcDbLine
 10
16.39584744386119
 20
46.42862889301324
 30
0.0
 11
16.39584744386119
 21
53.62862889301325
 31
0.0
  0
LINE
  5
32A
330
1F
100
AcDbEntity
  8
外形線
100
AcDbLine
 10
15.72084744386115
 20
53.62862889301325
 30
0.0
 11
16.39584744386119
 21
53.62862889301325
 31
0.0
  0
LINE
  5
32B
330
1F
100
AcDbEntity
  8
破線
100
AcDbLine
 10
-4.619384902426046
 20
52.3412493486639
 30
0.0
 11
-1.054152556138829
 21
52.3412493486639
 31
0.0
  0
LINE
  5
32C
330
1F
100
AcDbEntity
  8
破線
100
AcDbLine
 10
-5.007613470079861
 20
52.82862889301322
 30
0.0
 11
-1.054152556138829
 21
52.82862889301322
 31
0.0
  0
LINE
  5
32D
330
1F
100
AcDbEntity
  8
破線
100
AcDbLine
 10
-5.007613470079861
 20
47.22862889301322
 30
0.0
 11
-1.054152556138829
 21
47.22862889301322
 31
0.0
  0
LINE
  5
32E
330
1F
100
AcDbEntity
  8
破線
100
AcDbLine
 10
12.72084744386115
 20
56.19124934866388
 30
0.0
 11
-1.054152556138829
 21
56.19124934866388
 31
0.0
  0
LINE
  5
32F
330
1F
100
AcDbEntity
  8
中心線
100
AcDbLine
 10
16.59929086604376
 20
61.57862889301324
 30
0.0
 11
-1.054152556138829
 21
61.57862889301324
 31
0.0
  0
LINE
  5
330
330
1F
100
AcDbEntity
  8
破線
100
AcDbLine
 10
12.72084744386115
 20
44.64124934866387
 30
0.0
 11
-1.054152556138829
 21
44.64124934866387
 31
0.0
  0
LINE
  5
331
330
1F
100
AcDbEntity
  8
破線
100
AcDbLine
 10
-4.619384902426046
 20
47.71600843736258
 30
0.0
 11
-1.054152556138829
 21
47.71600843736258
 31
0.0
  0
LINE
  5
332
330
1F
100
AcDbEntity
  8
破線
100
AcDbLine
 10
-52.25076905625079
 20
67.60362889301354
 30
0.0
 11
-51.15948420943593
 21
67.74124934866424
 31
0.0
  0
LINE
  5
333
330
1F
100
AcDbEntity
  8
破線
100
AcDbLine
 10
12.72084744386115
 20
43.86600843736259
 30
0.0
 11
-1.054152556138829
 21
43.86600843736259
 31
0.0
  0
LINE
  5
334
330
1F
100
AcDbEntity
  8
破線
100
AcDbLine
 10
-4.619384902426046
 20
48.49124934866387
 30
0.0
 11
-1.054152556138829
 21
48.49124934866387
 31
0.0
  0
LINE
  5
335
330
1F
100
AcDbEntity
  8
破線
100
AcDbLine
 10
14.72766357463968
 20
55.80362889301324
 30
0.0
 11
11.35602894477671
 21
55.80362889301324
 31
0.0
  0
LINE
  5
336
330
1F
100
AcDbEntity
  8
破線
100
AcDbLine
 10
14.22084744386119
 20
41.75362889301323
 30
0.0
 11
14.22084744386119
 21
61.57862889301324
 31
0.0
  0
LINE
  5
337
330
1F
100
AcDbEntity
  8
破線
100
AcDbLine
 10
2.511079790148385
 20
51.5660084373626
 30
0.0
 11
-1.054152556138829
 21
51.5660084373626
 31
0.0
  0
LINE
  5
338
330
1F
100
AcDbEntity
  8
破線
100
AcDbLine
 10
12.72084744386115
 20
55.59764406936393
 30
0.0
 11
12.72084744386115
 21
56.00961371666253
 31
0.0
  0
LINE
  5
339
330
1F
100
AcDbEntity
  8
外形線
100
AcDbLine
 10
15.72084744386115
 20
42.50362889301323
 30
0.0
 11
15.72084744386115
 21
46.42862889301324
 31
0.0
  0
LINE
  5
33A
330
1F
100
AcDbEntity
  8
破線
100
AcDbLine
 10
-5.007613470079861
 20
74.17862889301324
 30
0.0
 11
-1.054152556138829
 21
74.17862889301324
 31
0.0
  0
LINE
  5
33B
330
1F
100
AcDbEntity
  8
破線
100
AcDbLine
 10
14.06440819358372
 20
45.12862889301323
 30
0.0
 11
-1.054152556138829
 21
45.12862889301323
 31
0.0
  0
LINE
  5
33C
330
1F
100
AcDbEntity
  8
破線
100
AcDbLine
 10
14.71973652114966
 20
41.75362889301323
 30
0.0
 11
14.71973652114966
 21
45.92862889301324
 31
0.0
  0
LINE
  5
33D
330
1F
100
AcDbEntity
  8
破線
100
AcDbLine
 10
13.87535594104863
 20
56.56637189886834
 30
0.0
 11
12.89359319526737
 21
56.24737784573632
 31
0.0
  0
LINE
  5
33E
330
1F
100
AcDbEntity
  8
破線
100
AcDbLine
 10
2.89930835780217
 20
51.07862889301322
 30
0.0
 11
-1.054152556138829
 21
51.07862889301322
 31
0.0
  0
LINE
  5
33F
330
1F
100
AcDbEntity
  8
破線
100
AcDbLine
 10
-14.82915255613881
 20
55.59764406936393
 30
0.0
 11
-14.82915255613881
 21
56.00961371666253
 31
0.0
  0
LINE
  5
340
330
1F
100
AcDbEntity
  8
破線
100
AcDbLine
 10
12.89359319526738
 20
43.80987994029013
 30
0.0
 11
13.87535594104862
 21
43.49088588715813
 31
0.0
  0
LINE
  5
341
330
1F
100
AcDbEntity
  8
破線
100
AcDbLine
 10
-16.32915255613887
 20
41.75362889301323
 30
0.0
 11
-16.32915255613887
 21
61.57862889301324
 31
0.0
  0
LINE
  5
342
330
1F
100
AcDbEntity
  8
破線
100
AcDbLine
 10
-16.83596868691734
 20
55.80362889301324
 30
0.0
 11
-13.46433405705437
 21
55.80362889301324
 31
0.0
  0
LINE
  5
343
330
1F
100
AcDbEntity
  8
破線
100
AcDbLine
 10
-21.88003704435249
 20
79.90362889301326
 30
0.0
 11
-21.88003704435249
 21
61.57862889301324
 31
0.0
  0
LINE
  5
344
330
1F
100
AcDbEntity
  8
破線
100
AcDbLine
 10
-22.95753605602687
 20
44.00362889301322
 30
0.0
 11
-22.95753605602687
 21
44.50362889301323
 31
0.0
  0
LINE
  5
345
330
1F
100
AcDbEntity
  8
破線
100
AcDbLine
 10
-24.04882090284173
 20
67.74124934866392
 30
0.0
 11
-24.04882090284173
 21
66.96600843736263
 31
0.0
  0
LINE
  5
346
330
1F
100
AcDbEntity
  8
破線
100
AcDbLine
 10
-33.65069164219779
 20
48.97862889301325
 30
0.0
 11
-37.6041525561388
 21
48.97862889301325
 31
0.0
  0
LINE
  5
347
330
1F
100
AcDbEntity
  8
破線
100
AcDbLine
 10
-34.03892020985161
 20
74.6660084373626
 30
0.0
 11
-37.6041525561388
 21
74.6660084373626
 31
0.0
  0
LINE
  5
348
330
1F
100
AcDbEntity
  8
破線
100
AcDbLine
 10
-22.95753605602691
 20
44.50362889301309
 30
0.0
 11
-24.04882090284177
 21
44.64124934866371
 31
0.0
  0
LINE
  5
349
330
1F
100
AcDbEntity
  8
破線
100
AcDbLine
 10
-22.40298072630935
 20
56.67862889301323
 30
0.0
 11
-37.6041525561388
 21
56.67862889301323
 31
0.0
  0
LINE
  5
34A
330
1F
100
AcDbEntity
  8
破線
100
AcDbLine
 10
-22.40298072630932
 20
44.50362889301323
 30
0.0
 11
-22.95753605602687
 21
44.50362889301323
 31
0.0
  0
LINE
  5
34B
330
1F
100
AcDbEntity
  8
破線
100
AcDbLine
 10
-33.65069164219779
 20
72.07862889301329
 30
0.0
 11
-33.65069164219779
 21
70.32862889301327
 31
0.0
  0
LINE
  5
34C
330
1F
100
AcDbEntity
  8
破線
100
AcDbLine
 10
-34.03892020985151
 20
74.66600843736268
 30
0.0
 11
-33.65069164219771
 21
74.17862889301332
 31
0.0
  0
LINE
  5
34D
330
1F
100
AcDbEntity
  8
破線
100
AcDbLine
 10
-33.65069164219779
 20
70.32862889301327
 30
0.0
 11
-37.6041525561388
 21
70.32862889301327
 31
0.0
  0
LINE
  5
34E
330
1F
100
AcDbEntity
  8
破線
100
AcDbLine
 10
-34.03892020985161
 20
75.44124934866392
 30
0.0
 11
-37.6041525561388
 21
75.44124934866392
 31
0.0
  0
LINE
  5
34F
330
1F
100
AcDbEntity
  8
破線
100
AcDbLine
 10
-22.40298072630932
 20
44.00362889301322
 30
0.0
 11
-22.95753605602687
 21
44.00362889301322
 31
0.0
  0
LINE
  5
350
330
1F
100
AcDbEntity
  8
破線
100
AcDbLine
 10
-24.04882090284173
 20
55.41600843736258
 30
0.0
 11
-22.40298072630932
 21
54.92862889301324
 31
0.0
  0
LINE
  5
351
330
1F
100
AcDbEntity
  8
外形線
100
AcDbLine
 10
-54.37915255613878
 20
42.50362889301323
 30
0.0
 11
-54.37915255613878
 21
44.36855596887645
 31
0.0
  0
LINE
  5
352
330
1F
100
AcDbEntity
  8
破線
100
AcDbLine
 10
-14.82915255613881
 20
66.96600843736263
 30
0.0
 11
-1.054152556138829
 21
66.96600843736263
 31
0.0
  0
LINE
  5
353
330
1F
100
AcDbEntity
  8
破線
100
AcDbLine
 10
2.89930835780217
 20
74.17862889301324
 30
0.0
 11
-1.054152556138829
 21
74.17862889301324
 31
0.0
  0
LINE
  5
354
330
1F
100
AcDbEntity
  8
破線
100
AcDbLine
 10
-4.619384902426046
 20
71.59124934866389
 30
0.0
 11
-1.054152556138829
 21
71.59124934866389
 31
0.0
  0
LINE
  5
355
330
1F
100
AcDbEntity
  8
破線
100
AcDbLine
 10
-5.007613470079861
 20
72.07862889301329
 30
0.0
 11
-1.054152556138829
 21
72.07862889301329
 31
0.0
  0
LINE
  5
356
330
1F
100
AcDbEntity
  8
破線
100
AcDbLine
 10
-21.82147206458743
 20
43.25362889301323
 30
0.0
 11
-21.82147206458743
 21
61.57862889301324
 31
0.0
  0
LINE
  5
357
330
1F
100
AcDbEntity
  8
破線
100
AcDbLine
 10
-34.03892020985161
 20
75.44124934866392
 30
0.0
 11
-34.03892020985161
 21
74.66600843736263
 31
0.0
  0
LINE
  5
358
330
1F
100
AcDbEntity
  8
破線
100
AcDbLine
 10
-14.82915255613881
 20
78.51600843736264
 30
0.0
 11
-1.054152556138829
 21
78.51600843736264
 31
0.0
  0
LINE
  5
359
330
1F
100
AcDbEntity
  8
外形線
100
AcDbLine
 10
15.72084744386115
 20
80.65362889301329
 30
0.0
 11
15.72084744386115
 21
80.40362889301329
 31
0.0
  0
LINE
  5
35A
330
1F
100
AcDbEntity
  8
外形線
100
AcDbLine
 10
15.72084744386115
 20
76.72862889301325
 30
0.0
 11
16.39584744386119
 21
76.72862889301325
 31
0.0
  0
LINE
  5
35B
330
1F
100
AcDbEntity
  8
破線
100
AcDbLine
 10
-14.82915255613881
 20
79.29124934866393
 30
0.0
 11
-1.054152556138829
 21
79.29124934866393
 31
0.0
  0
LINE
  5
35C
330
1F
100
AcDbEntity
  8
破線
100
AcDbLine
 10
-33.65069164219779
 20
75.92862889301329
 30
0.0
 11
-33.65069164219779
 21
74.17862889301327
 31
0.0
  0
LINE
  5
35D
330
1F
100
AcDbEntity
  8
破線
100
AcDbLine
 10
-16.83596868691734
 20
67.35362889301325
 30
0.0
 11
-13.46433405705437
 21
67.35362889301325
 31
0.0
  0
LINE
  5
35E
330
1F
100
AcDbEntity
  8
破線
100
AcDbLine
 10
-16.32915255613887
 20
81.40362889301327
 30
0.0
 11
-16.32915255613887
 21
61.57862889301324
 31
0.0
  0
LINE
  5
35F
330
1F
100
AcDbEntity
  8
破線
100
AcDbLine
 10
12.89359319526738
 20
79.3473778457364
 30
0.0
 11
13.87535594104862
 21
79.66637189886839
 31
0.0
  0
LINE
  5
360
330
1F
100
AcDbEntity
  8
破線
100
AcDbLine
 10
-14.82915255613881
 20
67.55961371666259
 30
0.0
 11
-14.82915255613881
 21
67.14764406936396
 31
0.0
  0
LINE
  5
361
330
1F
100
AcDbEntity
  8
破線
100
AcDbLine
 10
2.89930835780217
 20
72.07862889301329
 30
0.0
 11
-1.054152556138829
 21
72.07862889301329
 31
0.0
  0
LINE
  5
362
330
1F
100
AcDbEntity
  8
破線
100
AcDbLine
 10
13.87535594104869
 20
66.5908858871581
 30
0.0
 11
12.8935931952674
 21
66.90987994029014
 31
0.0
  0
LINE
  5
363
330
1F
100
AcDbEntity
  8
破線
100
AcDbLine
 10
14.71973652114966
 20
81.40362889301327
 30
0.0
 11
14.71973652114966
 21
77.22862889301325
 31
0.0
  0
LINE
  5
364
330
1F
100
AcDbEntity
  8
破線
100
AcDbLine
 10
14.06440819358372
 20
78.02862889301326
 30
0.0
 11
-1.054152556138829
 21
78.02862889301326
 31
0.0
  0
LINE
  5
365
330
1F
100
AcDbEntity
  8
外形線
100
AcDbLine
 10
15.72084744386115
 20
80.65362889301326
 30
0.0
 11
15.72084744386115
 21
76.72862889301325
 31
0.0
  0
LINE
  5
366
330
1F
100
AcDbEntity
  8
破線
100
AcDbLine
 10
14.72766357463968
 20
67.35362889301325
 30
0.0
 11
-1.054152556138829
 21
67.35362889301325
 31
0.0
  0
LINE
  5
367
330
1F
100
AcDbEntity
  8
破線
100
AcDbLine
 10
12.72084744386115
 20
67.55961371666259
 30
0.0
 11
12.72084744386115
 21
67.14764406936396
 31
0.0
  0
LINE
  5
368
330
1F
100
AcDbEntity
  8
破線
100
AcDbLine
 10
2.511079790148385
 20
71.59124934866389
 30
0.0
 11
-1.054152556138829
 21
71.59124934866389
 31
0.0
  0
LINE
  5
369
330
1F
100
AcDbEntity
  8
破線
100
AcDbLine
 10
14.22084744386119
 20
81.40362889301327
 30
0.0
 11
14.22084744386119
 21
61.57862889301324
 31
0.0
  0
LINE
  5
36A
330
1F
100
AcDbEntity
  8
破線
100
AcDbLine
 10
14.72766357463968
 20
67.35362889301325
 30
0.0
 11
11.35602894477671
 21
67.35362889301325
 31
0.0
  0
LINE
  5
36B
330
1F
100
AcDbEntity
  8
破線
100
AcDbLine
 10
-16.83596868691734
 20
67.35362889301325
 30
0.0
 11
-1.054152556138829
 21
67.35362889301325
 31
0.0
  0
LINE
  5
36C
330
1F
100
AcDbEntity
  8
破線
100
AcDbLine
 10
-4.619384902426046
 20
74.6660084373626
 30
0.0
 11
-1.054152556138829
 21
74.6660084373626
 31
0.0
  0
LINE
  5
36D
330
1F
100
AcDbEntity
  8
破線
100
AcDbLine
 10
12.72084744386115
 20
79.29124934866393
 30
0.0
 11
-1.054152556138829
 21
79.29124934866393
 31
0.0
  0
LINE
  5
36E
330
1F
100
AcDbEntity
  8
破線
100
AcDbLine
 10
-4.619384902426046
 20
75.44124934866392
 30
0.0
 11
-1.054152556138829
 21
75.44124934866392
 31
0.0
  0
LINE
  5
36F
330
1F
100
AcDbEntity
  8
破線
100
AcDbLine
 10
12.72084744386115
 20
78.51600843736264
 30
0.0
 11
-1.054152556138829
 21
78.51600843736264
 31
0.0
  0
LINE
  5
370
330
1F
100
AcDbEntity
  8
破線
100
AcDbLine
 10
12.72084744386115
 20
66.96600843736263
 30
0.0
 11
-1.054152556138829
 21
66.96600843736263
 31
0.0
  0
LINE
  5
371
330
1F
100
AcDbEntity
  8
破線
100
AcDbLine
 10
-5.007613470079861
 20
75.92862889301329
 30
0.0
 11
-1.054152556138829
 21
75.92862889301329
 31
0.0
  0
LINE
  5
372
330
1F
100
AcDbEntity
  8
破線
100
AcDbLine
 10
-5.007613470079861
 20
70.32862889301327
 30
0.0
 11
-1.054152556138829
 21
70.32862889301327
 31
0.0
  0
LINE
  5
373
330
1F
100
AcDbEntity
  8
破線
100
AcDbLine
 10
-4.619384902426046
 20
70.8160084373626
 30
0.0
 11
-1.054152556138829
 21
70.8160084373626
 31
0.0
  0
LINE
  5
374
330
1F
100
AcDbEntity
  8
外形線
100
AcDbLine
 10
15.72084744386115
 20
69.52862889301326
 30
0.0
 11
16.39584744386119
 21
69.52862889301326
 31
0.0
  0
LINE
  5
375
330
1F
100
AcDbEntity
  8
外形線
100
AcDbLine
 10
16.39584744386119
 20
76.72862889301325
 30
0.0
 11
16.39584744386119
 21
69.52862889301326
 31
0.0
  0
LINE
  5
376
330
1F
100
AcDbEntity
  8
破線
100
AcDbLine
 10
-4.619384902426046
 20
71.59124934866392
 30
0.0
 11
-4.619384902426046
 21
70.81600843736262
 31
0.0
  0
LINE
  5
377
330
1F
100
AcDbEntity
  8
破線
100
AcDbLine
 10
-5.007613470079861
 20
72.07862889301329
 30
0.0
 11
-5.007613470079861
 21
70.32862889301327
 31
0.0
  0
LINE
  5
378
330
1F
100
AcDbEntity
  8
破線
100
AcDbLine
 10
2.511079790148475
 20
70.81600843736277
 30
0.0
 11
2.899308357802276
 21
70.32862889301338
 31
0.0
  0
LINE
  5
379
330
1F
100
AcDbEntity
  8
破線
100
AcDbLine
 10
2.511079790148385
 20
75.44124934866392
 30
0.0
 11
2.511079790148385
 21
74.66600843736263
 31
0.0
  0
LINE
  5
37A
330
1F
100
AcDbEntity
  8
破線
100
AcDbLine
 10
2.89930835780217
 20
75.92862889301329
 30
0.0
 11
2.89930835780217
 21
74.17862889301327
 31
0.0
  0
LINE
  5
37B
330
1F
100
AcDbEntity
  8
外形線
100
AcDbLine
 10
-17.82915255613881
 20
80.65362889301326
 30
0.0
 11
-17.82915255613881
 21
61.57862889301324
 31
0.0
  0
LINE
  5
37C
330
1F
100
AcDbEntity
  8
破線
100
AcDbLine
 10
-4.619384902425988
 20
71.59124934866395
 30
0.0
 11
-5.007613470079782
 21
72.07862889301329
 31
0.0
  0
LINE
  5
37D
330
1F
100
AcDbEntity
  8
破線
100
AcDbLine
 10
15.48334744386119
 20
76.72862889301325
 30
0.0
 11
15.48334744386119
 21
69.52862889301326
 31
0.0
  0
LINE
  5
37E
330
1F
100
AcDbEntity
  8
破線
100
AcDbLine
 10
14.71973652114966
 20
69.02862889301326
 30
0.0
 11
14.71973652114966
 21
61.57862889301324
 31
0.0
  0
LINE
  5
37F
330
1F
100
AcDbEntity
  8
破線
100
AcDbLine
 10
-4.619384902426066
 20
74.6660084373626
 30
0.0
 11
-5.007613470079878
 21
74.17862889301324
 31
0.0
  0
LINE
  5
380
330
1F
100
AcDbEntity
  8
破線
100
AcDbLine
 10
-16.77915255613888
 20
79.40362889301326
 30
0.0
 11
-16.77915255613888
 21
61.57862889301324
 31
0.0
  0
LINE
  5
381
330
1F
100
AcDbEntity
  8
破線
100
AcDbLine
 10
14.22084744386119
 20
69.02862889301326
 30
0.0
 11
14.71973652114966
 21
69.02862889301326
 31
0.0
  0
LINE
  5
382
330
1F
100
AcDbEntity
  8
破線
100
AcDbLine
 10
-41.16938490242602
 20
52.3412493486639
 30
0.0
 11
-37.6041525561388
 21
52.3412493486639
 31
0.0
  0
LINE
  5
383
330
1F
100
AcDbEntity
  8
破線
100
AcDbLine
 10
-41.55761347007982
 20
52.82862889301322
 30
0.0
 11
-37.6041525561388
 21
52.82862889301322
 31
0.0
  0
LINE
  5
384
330
1F
100
AcDbEntity
  8
破線
100
AcDbLine
 10
-41.55761347007982
 20
47.22862889301322
 30
0.0
 11
-37.6041525561388
 21
47.22862889301322
 31
0.0
  0
LINE
  5
385
330
1F
100
AcDbEntity
  8
外形線
100
AcDbLine
 10
-54.65691233210701
 20
67.9164502452661
 30
0.0
 11
-55.1090732717217
 21
68.14080754076089
 31
0.0
  0
LINE
  5
386
330
1F
100
AcDbEntity
  8
外形線
100
AcDbLine
 10
-55.38683304769019
 20
77.66855596887649
 30
0.0
 11
-55.38683304769019
 21
68.58870181715005
 31
0.0
  0
LINE
  5
387
330
1F
100
AcDbEntity
  8
外形線
100
AcDbLine
 10
-55.10907327172191
 20
78.11645024526601
 30
0.0
 11
-54.65691233210723
 21
78.3408075407608
 31
0.0
  0
LINE
  5
388
330
1F
100
AcDbEntity
  8
破線
100
AcDbLine
 10
-53.45734845111482
 20
76.97862889301325
 30
0.0
 11
-53.45734845111482
 21
69.27862889301326
 31
0.0
  0
LINE
  5
389
330
1F
100
AcDbEntity
  8
破線
100
AcDbLine
 10
-41.16938490242602
 20
47.71600843736258
 30
0.0
 11
-37.6041525561388
 21
47.71600843736258
 31
0.0
  0
LINE
  5
38A
330
1F
100
AcDbEntity
  8
破線
100
AcDbLine
 10
14.22084744386119
 20
77.22862889301325
 30
0.0
 11
14.71973652114966
 21
77.22862889301325
 31
0.0
  0
LINE
  5
38B
330
1F
100
AcDbEntity
  8
破線
100
AcDbLine
 10
-52.03764225890996
 20
76.97862889301325
 30
0.0
 11
-52.03764225890996
 21
69.27862889301326
 31
0.0
  0
LINE
  5
38C
330
1F
100
AcDbEntity
  8
破線
100
AcDbLine
 10
-51.15948420943587
 20
67.74124934866392
 30
0.0
 11
-51.15948420943587
 21
66.96600843736263
 31
0.0
  0
LINE
  5
38D
330
1F
100
AcDbEntity
  8
破線
100
AcDbLine
 10
-53.32826806792509
 20
81.40362889301327
 30
0.0
 11
-53.32826806792509
 21
76.97862889301325
 31
0.0
  0
LINE
  5
38E
330
1F
100
AcDbEntity
  8
破線
100
AcDbLine
 10
-52.2507690562507
 20
67.60362889301325
 30
0.0
 11
-52.2507690562507
 21
67.10362889301325
 31
0.0
  0
LINE
  5
38F
330
1F
100
AcDbEntity
  8
破線
100
AcDbLine
 10
-16.17271330586141
 20
78.02862889301326
 30
0.0
 11
-1.054152556138829
 21
78.02862889301326
 31
0.0
  0
LINE
  5
390
330
1F
100
AcDbEntity
  8
破線
100
AcDbLine
 10
-41.16938490242602
 20
48.49124934866387
 30
0.0
 11
-37.6041525561388
 21
48.49124934866387
 31
0.0
  0
LINE
  5
391
330
1F
100
AcDbEntity
  8
破線
100
AcDbLine
 10
14.67084744386119
 20
69.02862889301326
 30
0.0
 11
14.67084744386119
 21
61.57862889301324
 31
0.0
  0
LINE
  5
392
330
1F
100
AcDbEntity
  8
破線
100
AcDbLine
 10
14.67084744386119
 20
81.40362889301327
 30
0.0
 11
14.67084744386119
 21
77.22862889301325
 31
0.0
  0
LINE
  5
393
330
1F
100
AcDbEntity
  8
破線
100
AcDbLine
 10
-52.80532438596829
 20
45.12862889301333
 30
0.0
 11
-51.15948420943587
 21
44.64124934866396
 31
0.0
  0
LINE
  5
394
330
1F
100
AcDbEntity
  8
破線
100
AcDbLine
 10
-14.82915255613881
 20
43.86600843736259
 30
0.0
 11
-1.054152556138829
 21
43.86600843736259
 31
0.0
  0
LINE
  5
395
330
1F
100
AcDbEntity
  8
破線
100
AcDbLine
 10
-16.32915255613887
 20
79.40362889301326
 30
0.0
 11
-16.82804163342735
 21
79.40362889301326
 31
0.0
  0
LINE
  5
396
330
1F
100
AcDbEntity
  8
破線
100
AcDbLine
 10
-53.38683304769018
 20
81.40362889301327
 30
0.0
 11
-53.38683304769018
 21
76.97862889301325
 31
0.0
  0
LINE
  5
397
330
1F
100
AcDbEntity
  8
外形線
100
AcDbLine
 10
-54.37915255613878
 20
46.17862889301323
 30
0.0
 11
-53.45734845111482
 21
46.17862889301323
 31
0.0
  0
LINE
  5
398
330
1F
100
AcDbEntity
  8
外形線
100
AcDbLine
 10
15.72084744386115
 20
76.72862889301325
 30
0.0
 11
15.72084744386115
 21
61.57862889301324
 31
0.0
  0
LINE
  5
399
330
1F
100
AcDbEntity
  8
破線
100
AcDbLine
 10
2.51107979014842
 20
74.66600843736268
 30
0.0
 11
2.899308357802233
 21
74.17862889301332
 31
0.0
  0
LINE
  5
39A
330
1F
100
AcDbEntity
  8
破線
100
AcDbLine
 10
2.511079790148376
 20
71.59124934866389
 30
0.0
 11
2.899308357802151
 21
72.07862889301321
 31
0.0
  0
LINE
  5
39B
330
1F
100
AcDbEntity
  8
破線
100
AcDbLine
 10
2.89930835780217
 20
72.07862889301329
 30
0.0
 11
2.89930835780217
 21
70.32862889301327
 31
0.0
  0
LINE
  5
39C
330
1F
100
AcDbEntity
  8
破線
100
AcDbLine
 10
-41.16938490242607
 20
70.81600843736261
 30
0.0
 11
-41.55761347007985
 21
70.32862889301326
 31
0.0
  0
LINE
  5
39D
330
1F
100
AcDbEntity
  8
破線
100
AcDbLine
 10
2.511079790148385
 20
71.59124934866392
 30
0.0
 11
2.511079790148385
 21
70.81600843736262
 31
0.0
  0
LINE
  5
39E
330
1F
100
AcDbEntity
  8
外形線
100
AcDbLine
 10
15.72084744386115
 20
46.42862889301324
 30
0.0
 11
16.39584744386119
 21
46.42862889301324
 31
0.0
  0
LINE
  5
39F
330
1F
100
AcDbEntity
  8
外形線
100
AcDbLine
 10
15.72084744386115
 20
42.50362889301323
 30
0.0
 11
15.72084744386115
 21
42.75362889301322
 31
0.0
  0
LINE
  5
3A0
330
1F
100
AcDbEntity
  8
破線
100
AcDbLine
 10
-16.82804163342735
 20
79.40362889301326
 30
0.0
 11
-16.82804163342735
 21
61.57862889301324
 31
0.0
  0
LINE
  5
3A1
330
1F
100
AcDbEntity
  8
破線
100
AcDbLine
 10
-14.82915255613881
 20
44.64124934866387
 30
0.0
 11
-1.054152556138829
 21
44.64124934866387
 31
0.0
  0
LINE
  5
3A2
330
1F
100
AcDbEntity
  8
破線
100
AcDbLine
 10
-5.007613470079861
 20
51.07862889301322
 30
0.0
 11
-1.054152556138829
 21
51.07862889301322
 31
0.0
  0
LINE
  5
3A3
330
1F
100
AcDbEntity
  8
破線
100
AcDbLine
 10
-4.619384902426046
 20
51.5660084373626
 30
0.0
 11
-1.054152556138829
 21
51.5660084373626
 31
0.0
  0
LINE
  5
3A4
330
1F
100
AcDbEntity
  8
破線
100
AcDbLine
 10
2.89930835780217
 20
48.97862889301325
 30
0.0
 11
-1.054152556138829
 21
48.97862889301325
 31
0.0
  0
LINE
  5
3A5
330
1F
100
AcDbEntity
  8
破線
100
AcDbLine
 10
-52.80532438596831
 20
54.92862889301324
 30
0.0
 11
-37.6041525561388
 21
54.92862889301324
 31
0.0
  0
LINE
  5
3A6
330
1F
100
AcDbEntity
  8
破線
100
AcDbLine
 10
-41.55761347007982
 20
75.92862889301329
 30
0.0
 11
-37.6041525561388
 21
75.92862889301329
 31
0.0
  0
LINE
  5
3A7
330
1F
100
AcDbEntity
  8
破線
100
AcDbLine
 10
-22.95753605602688
 20
44.00362889301338
 30
0.0
 11
-24.04882090284171
 21
43.86600843736272
 31
0.0
  0
LINE
  5
3A8
330
1F
100
AcDbEntity
  8
破線
100
AcDbLine
 10
-33.65069164219779
 20
47.22862889301322
 30
0.0
 11
-33.65069164219779
 21
48.97862889301322
 31
0.0
  0
LINE
  5
3A9
330
1F
100
AcDbEntity
  8
破線
100
AcDbLine
 10
-41.16938490242596
 20
71.59124934866392
 30
0.0
 11
-41.55761347007977
 21
72.07862889301329
 31
0.0
  0
LINE
  5
3AA
330
1F
100
AcDbEntity
  8
破線
100
AcDbLine
 10
-41.16938490242602
 20
70.8160084373626
 30
0.0
 11
-37.6041525561388
 21
70.8160084373626
 31
0.0
  0
LINE
  5
3AB
330
1F
100
AcDbEntity
  8
破線
100
AcDbLine
 10
-41.16938490242602
 20
71.59124934866392
 30
0.0
 11
-41.16938490242602
 21
70.81600843736262
 31
0.0
  0
LINE
  5
3AC
330
1F
100
AcDbEntity
  8
破線
100
AcDbLine
 10
-52.80532438596829
 20
81.40362889301327
 30
0.0
 11
-52.80532438596829
 21
76.97862889301325
 31
0.0
  0
LINE
  5
3AD
330
1F
100
AcDbEntity
  8
破線
100
AcDbLine
 10
-51.15948420943587
 20
79.29124934866393
 30
0.0
 11
-51.15948420943587
 21
78.51600843736264
 31
0.0
  0
LINE
  5
3AE
330
1F
100
AcDbEntity
  8
破線
100
AcDbLine
 10
-52.2507690562507
 20
79.15362889301326
 30
0.0
 11
-52.2507690562507
 21
78.65362889301326
 31
0.0
  0
LINE
  5
3AF
330
1F
100
AcDbEntity
  8
破線
100
AcDbLine
 10
-51.15948420943587
 20
55.41600843736259
 30
0.0
 11
-37.6041525561388
 21
55.41600843736259
 31
0.0
  0
LINE
  5
3B0
330
1F
100
AcDbEntity
  8
破線
100
AcDbLine
 10
-53.38596868691731
 20
55.80362889301324
 30
0.0
 11
-50.01433405705435
 21
55.80362889301324
 31
0.0
  0
LINE
  5
3B1
330
1F
100
AcDbEntity
  8
破線
100
AcDbLine
 10
-37.6041525561388
 20
38.68552514966353
 30
0.0
 11
-37.6041525561388
 21
61.57862889301324
 31
0.0
  0
LINE
  5
3B2
330
1F
100
AcDbEntity
  8
外形線
100
AcDbLine
 10
-54.37915255613878
 20
67.46855596887647
 30
0.0
 11
-54.37915255613878
 21
61.57862889301324
 31
0.0
  0
LINE
  5
3B3
330
1F
100
AcDbEntity
  8
破線
100
AcDbLine
 10
-52.25076905625066
 20
67.10362889301308
 30
0.0
 11
-51.15948420943585
 21
66.96600843736245
 31
0.0
  0
LINE
  5
3B4
330
1F
100
AcDbEntity
  8
破線
100
AcDbLine
 10
-52.80532438596829
 20
67.10362889301325
 30
0.0
 11
-52.2507690562507
 21
67.10362889301325
 31
0.0
  0
LINE
  5
3B5
330
1F
100
AcDbEntity
  8
破線
100
AcDbLine
 10
-52.80532438596829
 20
67.60362889301325
 30
0.0
 11
-52.2507690562507
 21
67.60362889301325
 31
0.0
  0
LINE
  5
3B6
330
1F
100
AcDbEntity
  8
破線
100
AcDbLine
 10
-53.38683304769018
 20
69.27862889301326
 30
0.0
 11
-53.38683304769018
 21
61.57862889301324
 31
0.0
  0
LINE
  5
3B7
330
1F
100
AcDbEntity
  8
破線
100
AcDbLine
 10
-52.80532438596829
 20
69.27862889301326
 30
0.0
 11
-52.80532438596829
 21
61.57862889301324
 31
0.0
  0
LINE
  5
3B8
330
1F
100
AcDbEntity
  8
破線
100
AcDbLine
 10
-52.80532438596829
 20
66.47862889301333
 30
0.0
 11
-51.15948420943587
 21
66.96600843736269
 31
0.0
  0
LINE
  5
3B9
330
1F
100
AcDbEntity
  8
破線
100
AcDbLine
 10
-53.45734845111482
 20
53.87862889301326
 30
0.0
 11
-52.03764225890996
 21
53.87862889301326
 31
0.0
  0
LINE
  5
3BA
330
1F
100
AcDbEntity
  8
破線
100
AcDbLine
 10
-53.32826806792509
 20
69.27862889301326
 30
0.0
 11
-53.32826806792509
 21
61.57862889301324
 31
0.0
  0
LINE
  5
3BB
330
1F
100
AcDbEntity
  8
破線
100
AcDbLine
 10
-51.15948420943587
 20
66.96600843736263
 30
0.0
 11
-37.6041525561388
 21
66.96600843736263
 31
0.0
  0
LINE
  5
3BC
330
1F
100
AcDbEntity
  8
破線
100
AcDbLine
 10
-53.38596868691731
 20
67.35362889301325
 30
0.0
 11
-50.01433405705435
 21
67.35362889301325
 31
0.0
  0
LINE
  5
3BD
330
1F
100
AcDbEntity
  8
破線
100
AcDbLine
 10
-51.15948420943587
 20
67.74124934866392
 30
0.0
 11
-37.6041525561388
 21
67.74124934866392
 31
0.0
  0
LINE
  5
3BE
330
1F
100
AcDbEntity
  8
破線
100
AcDbLine
 10
-52.80532438596831
 20
68.22862889301325
 30
0.0
 11
-37.6041525561388
 21
68.22862889301325
 31
0.0
  0
LINE
  5
3BF
330
1F
100
AcDbEntity
  8
破線
100
AcDbLine
 10
-51.15948420943587
 20
56.19124934866388
 30
0.0
 11
-37.6041525561388
 21
56.19124934866388
 31
0.0
  0
LINE
  5
3C0
330
1F
100
AcDbEntity
  8
破線
100
AcDbLine
 10
-53.45734845111482
 20
69.27862889301326
 30
0.0
 11
-52.03764225890996
 21
69.27862889301326
 31
0.0
  0
LINE
  5
3C1
330
1F
100
AcDbEntity
  8
破線
100
AcDbLine
 10
-52.25076905625075
 20
79.15362889301366
 30
0.0
 11
-51.15948420943592
 21
79.29124934866432
 31
0.0
  0
LINE
  5
3C2
330
1F
100
AcDbEntity
  8
破線
100
AcDbLine
 10
-53.32826806792509
 20
53.87862889301326
 30
0.0
 11
-53.32826806792509
 21
61.57862889301324
 31
0.0
  0
LINE
  5
3C3
330
1F
100
AcDbEntity
  8
外形線
100
AcDbLine
 10
-53.45734845111482
 20
76.97862889301325
 30
0.0
 11
-53.45734845111482
 21
69.27862889301326
 31
0.0
  0
LINE
  5
3C4
330
1F
100
AcDbEntity
  8
破線
100
AcDbLine
 10
-54.37915255613878
 20
80.65362889301329
 30
0.0
 11
-54.37915255613878
 21
80.40362889301329
 31
0.0
  0
LINE
  5
3C5
330
1F
100
AcDbEntity
  8
破線
100
AcDbLine
 10
-52.80532438596829
 20
56.6786288930133
 30
0.0
 11
-51.15948420943588
 21
56.19124934866395
 31
0.0
  0
LINE
  5
3C6
330
1F
100
AcDbEntity
  8
外形線
100
AcDbLine
 10
-54.37915255613878
 20
76.97862889301325
 30
0.0
 11
-54.37915255613878
 21
69.27862889301326
 31
0.0
  0
LINE
  5
3C7
330
1F
100
AcDbEntity
  8
破線
100
AcDbLine
 10
-52.80532438596829
 20
53.87862889301326
 30
0.0
 11
-52.80532438596829
 21
61.57862889301324
 31
0.0
  0
LINE
  5
3C8
330
1F
100
AcDbEntity
  8
破線
100
AcDbLine
 10
-53.38683304769018
 20
53.87862889301326
 30
0.0
 11
-53.38683304769018
 21
61.57862889301324
 31
0.0
  0
LINE
  5
3C9
330
1F
100
AcDbEntity
  8
破線
100
AcDbLine
 10
-52.80532438596829
 20
55.55362889301324
 30
0.0
 11
-52.2507690562507
 21
55.55362889301324
 31
0.0
  0
LINE
  5
3CA
330
1F
100
AcDbEntity
  8
破線
100
AcDbLine
 10
-52.80532438596829
 20
56.05362889301324
 30
0.0
 11
-52.2507690562507
 21
56.05362889301324
 31
0.0
  0
LINE
  5
3CB
330
1F
100
AcDbEntity
  8
破線
100
AcDbLine
 10
-52.25076905625075
 20
56.05362889301311
 30
0.0
 11
-51.1594842094359
 21
56.19124934866373
 31
0.0
  0
LINE
  5
3CC
330
1F
100
AcDbEntity
  8
破線
100
AcDbLine
 10
-41.16938490242602
 20
71.59124934866389
 30
0.0
 11
-37.6041525561388
 21
71.59124934866389
 31
0.0
  0
LINE
  5
3CD
330
1F
100
AcDbEntity
  8
破線
100
AcDbLine
 10
-41.55761347007982
 20
72.07862889301329
 30
0.0
 11
-37.6041525561388
 21
72.07862889301329
 31
0.0
  0
LINE
  5
3CE
330
1F
100
AcDbEntity
  8
外形線
100
AcDbLine
 10
-54.37915255613878
 20
55.68870181715002
 30
0.0
 11
-54.37915255613878
 21
61.57862889301324
 31
0.0
  0
LINE
  5
3CF
330
1F
100
AcDbEntity
  8
破線
100
AcDbLine
 10
-52.2507690562507
 20
55.55362889301324
 30
0.0
 11
-52.2507690562507
 21
56.05362889301324
 31
0.0
  0
LINE
  5
3D0
330
1F
100
AcDbEntity
  8
破線
100
AcDbLine
 10
-52.80532438596829
 20
79.77862889301326
 30
0.0
 11
-37.6041525561388
 21
79.77862889301326
 31
0.0
  0
LINE
  5
3D1
330
1F
100
AcDbEntity
  8
外形線
100
AcDbLine
 10
-37.6041525561388
 20
81.40362889301327
 30
0.0
 11
-53.62915255613878
 21
81.40362889301327
 31
0.0
  0
LINE
  5
3D2
330
1F
100
AcDbEntity
  8
破線
100
AcDbLine
 10
-53.32826806792509
 20
41.75362889301323
 30
0.0
 11
-53.32826806792509
 21
46.17862889301323
 31
0.0
  0
LINE
  5
3D3
330
1F
100
AcDbEntity
  8
破線
100
AcDbLine
 10
-51.15948420943587
 20
79.29124934866393
 30
0.0
 11
-37.6041525561388
 21
79.29124934866393
 31
0.0
  0
LINE
  5
3D4
330
1F
100
AcDbEntity
  8
破線
100
AcDbLine
 10
-51.15948420943589
 20
79.29124934866388
 30
0.0
 11
-52.80532438596829
 21
79.77862889301325
 31
0.0
  0
LINE
  5
3D5
330
1F
100
AcDbEntity
  8
破線
100
AcDbLine
 10
-51.15948420943587
 20
55.41600843736259
 30
0.0
 11
-51.15948420943587
 21
56.19124934866388
 31
0.0
  0
LINE
  5
3D6
330
1F
100
AcDbEntity
  8
破線
100
AcDbLine
 10
-52.03764225890996
 20
46.17862889301323
 30
0.0
 11
-52.03764225890996
 21
53.87862889301326
 31
0.0
  0
LINE
  5
3D7
330
1F
100
AcDbEntity
  8
外形線
100
AcDbLine
 10
-53.45734845111482
 20
46.17862889301323
 30
0.0
 11
-53.45734845111482
 21
53.87862889301326
 31
0.0
  0
LINE
  5
3D8
330
1F
100
AcDbEntity
  8
破線
100
AcDbLine
 10
-52.80532438596829
 20
78.02862889301326
 30
0.0
 11
-37.6041525561388
 21
78.02862889301326
 31
0.0
  0
LINE
  5
3D9
330
1F
100
AcDbEntity
  8
外形線
100
AcDbLine
 10
-55.10907327172177
 20
45.04080754076077
 30
0.0
 11
-54.65691233210708
 21
44.81645024526597
 31
0.0
  0
LINE
  5
3DA
330
1F
100
AcDbEntity
  8
外形線
100
AcDbLine
 10
-55.38683304769019
 20
45.48870181715002
 30
0.0
 11
-55.38683304769019
 21
54.56855596887646
 31
0.0
  0
LINE
  5
3DB
330
1F
100
AcDbEntity
  8
外形線
100
AcDbLine
 10
-54.65691233210724
 20
55.24080754076071
 30
0.0
 11
-55.1090732717219
 21
55.01645024526593
 31
0.0
  0
LINE
  5
3DC
330
1F
100
AcDbEntity
  8
破線
100
AcDbLine
 10
-51.15948420943587
 20
78.51600843736264
 30
0.0
 11
-37.6041525561388
 21
78.51600843736264
 31
0.0
  0
LINE
  5
3DD
330
1F
100
AcDbEntity
  8
破線
100
AcDbLine
 10
-52.25076905625064
 20
55.55362889301348
 30
0.0
 11
-51.15948420943581
 21
55.41600843736283
 31
0.0
  0
LINE
  5
3DE
330
1F
100
AcDbEntity
  8
破線
100
AcDbLine
 10
-41.16938490242602
 20
75.44124934866392
 30
0.0
 11
-37.6041525561388
 21
75.44124934866392
 31
0.0
  0
LINE
  5
3DF
330
1F
100
AcDbEntity
  8
破線
100
AcDbLine
 10
-41.55761347007982
 20
70.32862889301327
 30
0.0
 11
-37.6041525561388
 21
70.32862889301327
 31
0.0
  0
LINE
  5
3E0
330
1F
100
AcDbEntity
  8
破線
100
AcDbLine
 10
-41.16938490242604
 20
74.66600843736258
 30
0.0
 11
-41.55761347007985
 21
74.17862889301321
 31
0.0
  0
LINE
  5
3E1
330
1F
100
AcDbEntity
  8
破線
100
AcDbLine
 10
-41.55761347007982
 20
72.07862889301329
 30
0.0
 11
-41.55761347007982
 21
70.32862889301327
 31
0.0
  0
LINE
  5
3E2
330
1F
100
AcDbEntity
  8
外形線
100
AcDbLine
 10
-54.37915255613878
 20
80.65362889301326
 30
0.0
 11
-54.37915255613878
 21
78.78870181715004
 31
0.0
  0
LINE
  5
3E3
330
1F
100
AcDbEntity
  8
破線
100
AcDbLine
 10
-34.03892020985161
 20
47.71600843736258
 30
0.0
 11
-34.03892020985161
 21
48.49124934866387
 31
0.0
  0
LINE
  5
3E4
330
1F
100
AcDbEntity
  8
破線
100
AcDbLine
 10
-14.82915255613881
 20
56.19124934866388
 30
0.0
 11
-1.054152556138829
 21
56.19124934866388
 31
0.0
  0
LINE
  5
3E5
330
1F
100
AcDbEntity
  8
破線
100
AcDbLine
 10
-19.3214720645874
 20
61.57862889301324
 30
0.0
 11
-37.6041525561388
 21
61.57862889301324
 31
0.0
  0
LINE
  5
3E6
330
1F
100
AcDbEntity
  8
破線
100
AcDbLine
 10
-22.40298072630932
 20
43.37862889301322
 30
0.0
 11
-37.6041525561388
 21
43.37862889301322
 31
0.0
  0
LINE
  5
3E7
330
1F
100
AcDbEntity
  8
破線
100
AcDbLine
 10
-34.03892020985159
 20
52.34124934866386
 30
0.0
 11
-33.6506916421978
 21
52.82862889301322
 31
0.0
  0
LINE
  5
3E8
330
1F
100
AcDbEntity
  8
外形線
100
AcDbLine
 10
-54.37915255613878
 20
53.87862889301326
 30
0.0
 11
-53.45734845111482
 21
53.87862889301326
 31
0.0
  0
LINE
  5
3E9
330
1F
100
AcDbEntity
  8
破線
100
AcDbLine
 10
-41.16938490242602
 20
74.6660084373626
 30
0.0
 11
-37.6041525561388
 21
74.6660084373626
 31
0.0
  0
LINE
  5
3EA
330
1F
100
AcDbEntity
  8
破線
100
AcDbLine
 10
-22.95753605602682
 20
67.60362889301365
 30
0.0
 11
-24.04882090284163
 21
67.7412493486643
 31
0.0
  0
LINE
  5
3EB
330
1F
100
AcDbEntity
  8
外形線
100
AcDbLine
 10
-37.6041525561388
 20
41.75362889301323
 30
0.0
 11
-21.57915255613881
 21
41.75362889301323
 31
0.0
  0
LINE
  5
3EC
330
1F
100
AcDbEntity
  8
破線
100
AcDbLine
 10
-24.04882090284173
 20
43.86600843736259
 30
0.0
 11
-37.6041525561388
 21
43.86600843736259
 31
0.0
  0
LINE
  5
3ED
330
1F
100
AcDbEntity
  8
破線
100
AcDbLine
 10
-41.55761347007982
 20
48.97862889301325
 30
0.0
 11
-37.6041525561388
 21
48.97862889301325
 31
0.0
  0
LINE
  5
3EE
330
1F
100
AcDbEntity
  8
破線
100
AcDbLine
 10
-34.03892020985161
 20
51.5660084373626
 30
0.0
 11
-37.6041525561388
 21
51.5660084373626
 31
0.0
  0
LINE
  5
3EF
330
1F
100
AcDbEntity
  8
破線
100
AcDbLine
 10
-33.65069164219779
 20
51.07862889301322
 30
0.0
 11
-37.6041525561388
 21
51.07862889301322
 31
0.0
  0
LINE
  5
3F0
330
1F
100
AcDbEntity
  8
破線
100
AcDbLine
 10
-24.04882090284174
 20
43.8660084373626
 30
0.0
 11
-22.40298072630935
 21
43.37862889301324
 31
0.0
  0
LINE
  5
3F1
330
1F
100
AcDbEntity
  8
破線
100
AcDbLine
 10
-24.04882090284173
 20
44.64124934866387
 30
0.0
 11
-37.6041525561388
 21
44.64124934866387
 31
0.0
  0
LINE
  5
3F2
330
1F
100
AcDbEntity
  8
外形線
100
AcDbLine
 10
-54.37915255613878
 20
76.97862889301325
 30
0.0
 11
-53.45734845111482
 21
76.97862889301325
 31
0.0
  0
LINE
  5
3F3
330
1F
100
AcDbEntity
  8
破線
100
AcDbLine
 10
-52.80532438596825
 20
56.67862889301323
 30
0.0
 11
-37.6041525561388
 21
56.67862889301323
 31
0.0
  0
LINE
  5
3F4
330
1F
100
AcDbEntity
  8
破線
100
AcDbLine
 10
44.18389702869885
 20
23.52487195936921
 30
0.0
 11
43.97791220504958
 21
23.52487195936921
 31
0.0
  0
LINE
  5
3F5
330
1F
100
AcDbEntity
  8
破線
100
AcDbLine
 10
-33.91177774926348
 20
23.53000233921507
 30
0.0
 11
-33.78229146244856
 21
24.0132517404918
 31
0.0
  0
LINE
  5
3F6
330
1F
100
AcDbEntity
  8
外形線
100
AcDbLine
 10
72.60291220504957
 20
5.24987195936918
 30
0.0
 11
65.40291220504959
 21
5.24987195936918
 31
0.0
  0
LINE
  5
3F7
330
1F
100
AcDbEntity
  8
外形線
100
AcDbLine
 10
72.60291220504957
 20
7.099871959369185
 30
0.0
 11
65.40291220504959
 21
7.099871959369185
 31
0.0
  0
LINE
  5
3F8
330
1F
100
AcDbEntity
  8
外形線
100
AcDbLine
 10
64.90291220504957
 20
8.349871959369185
 30
0.0
 11
57.45291220504959
 21
8.349871959369185
 31
0.0
  0
LINE
  5
3F9
330
1F
100
AcDbEntity
  8
外形線
100
AcDbLine
 10
77.27791220504956
 20
8.349871959369185
 30
0.0
 11
73.10291220504956
 21
8.349871959369185
 31
0.0
  0
LINE
  5
3FA
330
1F
100
AcDbEntity
  8
破線
100
AcDbLine
 10
70.48416325232667
 20
23.6976177107755
 30
0.0
 11
70.16516919919465
 21
24.67938045655671
 31
0.0
  0
LINE
  5
3FB
330
1F
100
AcDbEntity
  8
破線
100
AcDbLine
 10
71.37166115777286
 20
23.69761771077543
 30
0.0
 11
71.69065526300125
 21
24.67938061689278
 31
0.0
  0
LINE
  5
3FC
330
1F
100
AcDbEntity
  8
破線
100
AcDbLine
 10
71.13389702869887
 20
23.52487195936921
 30
0.0
 11
70.92791220504953
 21
23.52487195936921
 31
0.0
  0
LINE
  5
3FD
330
1F
100
AcDbEntity
  8
破線
100
AcDbLine
 10
69.68964094104696
 20
25.02487195936921
 30
0.0
 11
68.31618346905225
 21
25.02487195936921
 31
0.0
  0
LINE
  5
3FE
330
1F
100
AcDbEntity
  8
破線
100
AcDbLine
 10
67.2838970286989
 20
23.52487195936921
 30
0.0
 11
67.07791220504958
 21
23.52487195936921
 31
0.0
  0
LINE
  5
3FF
330
1F
100
AcDbEntity
  8
破線
100
AcDbLine
 10
67.52166115777298
 20
23.69761771077535
 30
0.0
 11
67.84065526300135
 21
24.6793806168927
 31
0.0
  0
LINE
  5
400
330
1F
100
AcDbEntity
  8
破線
100
AcDbLine
 10
66.63416325232669
 20
23.6976177107755
 30
0.0
 11
66.31516919919467
 21
24.67938045655672
 31
0.0
  0
LINE
  5
401
330
1F
100
AcDbEntity
  8
破線
100
AcDbLine
 10
66.87192738140033
 20
23.52487195936921
 30
0.0
 11
67.07791220504958
 21
23.52487195936921
 31
0.0
  0
LINE
  5
402
330
1F
100
AcDbEntity
  8
破線
100
AcDbLine
 10
63.02192738140028
 20
23.52487195936921
 30
0.0
 11
63.22791220504957
 21
23.52487195936921
 31
0.0
  0
LINE
  5
403
330
1F
100
AcDbEntity
  8
破線
100
AcDbLine
 10
62.78416325232679
 20
23.69761771077552
 30
0.0
 11
62.46516919919478
 21
24.67938045655676
 31
0.0
  0
LINE
  5
404
330
1F
100
AcDbEntity
  8
破線
100
AcDbLine
 10
63.67166115777294
 20
23.6976177107754
 30
0.0
 11
63.99065526300133
 21
24.67938061689276
 31
0.0
  0
LINE
  5
405
330
1F
100
AcDbEntity
  8
破線
100
AcDbLine
 10
63.43389702869888
 20
23.52487195936921
 30
0.0
 11
63.22791220504957
 21
23.52487195936921
 31
0.0
  0
LINE
  5
406
330
1F
100
AcDbEntity
  8
破線
100
AcDbLine
 10
65.83964094104692
 20
25.02487195936921
 30
0.0
 11
64.46618346905222
 21
25.02487195936921
 31
0.0
  0
LINE
  5
407
330
1F
100
AcDbEntity
  8
破線
100
AcDbLine
 10
61.98964094104688
 20
25.02487195936921
 30
0.0
 11
57.45291220504959
 21
25.02487195936921
 31
0.0
  0
LINE
  5
408
330
1F
100
AcDbEntity
  8
破線
100
AcDbLine
 10
74.98389702869889
 20
23.52487195936921
 30
0.0
 11
74.77791220504956
 21
23.52487195936921
 31
0.0
  0
LINE
  5
409
330
1F
100
AcDbEntity
  8
破線
100
AcDbLine
 10
75.22166115777277
 20
23.6976177107754
 30
0.0
 11
75.54065526300117
 21
24.67938061689276
 31
0.0
  0
LINE
  5
40A
330
1F
100
AcDbEntity
  8
中心線
100
AcDbLine
 10
57.45291220504959
 20
28.20633805663502
 30
0.0
 11
57.45291220504959
 21
7.672626528183453
 31
0.0
  0
LINE
  5
40B
330
1F
100
AcDbEntity
  8
外形線
100
AcDbLine
 10
38.37791220504957
 20
26.02487195936921
 30
0.0
 11
57.45291220504959
 21
26.02487195936921
 31
0.0
  0
LINE
  5
40C
330
1F
100
AcDbEntity
  8
破線
100
AcDbLine
 10
75.16553266070025
 20
23.52487195936921
 30
0.0
 11
75.16553266070025
 21
11.24987195936918
 31
0.0
  0
LINE
  5
40D
330
1F
100
AcDbEntity
  8
破線
100
AcDbLine
 10
74.39029174939891
 20
23.52487195936921
 30
0.0
 11
74.39029174939891
 21
11.24987195936918
 31
0.0
  0
LINE
  5
40E
330
1F
100
AcDbEntity
  8
破線
100
AcDbLine
 10
75.65291220504956
 20
24.86843270909174
 30
0.0
 11
75.65291220504956
 21
11.24987195936918
 31
0.0
  0
LINE
  5
40F
330
1F
100
AcDbEntity
  8
外形線
100
AcDbLine
 10
37.6279122050496
 20
25.02487195936921
 30
0.0
 11
37.6279122050496
 21
9.74987195936918
 31
0.0
  0
LINE
  5
410
330
1F
100
AcDbEntity
  8
外形線
100
AcDbLine
 10
50.00291220504958
 20
9.74987195936918
 30
0.0
 11
50.00291220504958
 21
8.349871959369185
 31
0.0
  0
LINE
  5
411
330
1F
100
AcDbEntity
  8
破線
100
AcDbLine
 10
73.90291220504952
 20
24.73669687829215
 30
0.0
 11
73.90291220504952
 21
11.24987195936918
 31
0.0
  0
LINE
  5
412
330
1F
100
AcDbEntity
  8
外形線
100
AcDbLine
 10
41.80291220504961
 20
9.74987195936918
 30
0.0
 11
41.80291220504961
 21
8.349871959369185
 31
0.0
  0
LINE
  5
413
330
1F
100
AcDbEntity
  8
外形線
100
AcDbLine
 10
49.5029122050496
 20
9.74987195936918
 30
0.0
 11
49.5029122050496
 21
5.24987195936918
 31
0.0
  0
LINE
  5
414
330
1F
100
AcDbEntity
  8
破線
100
AcDbLine
 10
62.84029174939888
 20
23.52487195936921
 30
0.0
 11
62.84029174939888
 21
11.24987195936918
 31
0.0
  0
LINE
  5
415
330
1F
100
AcDbEntity
  8
破線
100
AcDbLine
 10
63.61553266070025
 20
23.52487195936921
 30
0.0
 11
63.61553266070025
 21
11.24987195936918
 31
0.0
  0
LINE
  5
416
330
1F
100
AcDbEntity
  8
破線
100
AcDbLine
 10
64.10291220504962
 20
24.86843270909174
 30
0.0
 11
64.10291220504962
 21
11.24987195936918
 31
0.0
  0
LINE
  5
417
330
1F
100
AcDbEntity
  8
破線
100
AcDbLine
 10
62.35291220504956
 20
24.73669687829215
 30
0.0
 11
62.35291220504956
 21
11.24987195936918
 31
0.0
  0
LINE
  5
418
330
1F
100
AcDbEntity
  8
外形線
100
AcDbLine
 10
37.6279122050496
 20
9.74987195936918
 30
0.0
 11
57.45291220504959
 21
9.74987195936918
 31
0.0
  0
LINE
  5
419
330
1F
100
AcDbEntity
  8
破線
100
AcDbLine
 10
74.33416325232659
 20
23.69761771077547
 30
0.0
 11
74.01516919919456
 21
24.6793804565567
 31
0.0
  0
LINE
  5
41A
330
1F
100
AcDbEntity
  8
破線
100
AcDbLine
 10
37.6279122050496
 20
11.24987195936918
 30
0.0
 11
57.45291220504959
 21
11.24987195936918
 31
0.0
  0
LINE
  5
41B
330
1F
100
AcDbEntity
  8
外形線
100
AcDbLine
 10
37.6279122050496
 20
9.74987195936918
 30
0.0
 11
37.6279122050496
 21
8.349871959369185
 31
0.0
  0
LINE
  5
41C
330
1F
100
AcDbEntity
  8
外形線
100
AcDbLine
 10
42.30291220504961
 20
9.74987195936918
 30
0.0
 11
42.30291220504961
 21
5.24987195936918
 31
0.0
  0
LINE
  5
41D
330
1F
100
AcDbEntity
  8
破線
100
AcDbLine
 10
37.6279122050496
 20
25.02487195936921
 30
0.0
 11
38.88964094104694
 21
25.02487195936921
 31
0.0
  0
LINE
  5
41E
330
1F
100
AcDbEntity
  8
外形線
100
AcDbLine
 10
77.27791220504956
 20
25.27487195936922
 30
0.0
 11
77.27791220504956
 21
25.02487195936922
 31
0.0
  0
LINE
  5
41F
330
1F
100
AcDbEntity
  8
破線
100
AcDbLine
 10
73.53964094104691
 20
25.02487195936921
 30
0.0
 11
72.1661834690522
 21
25.02487195936921
 31
0.0
  0
LINE
  5
420
330
1F
100
AcDbEntity
  8
破線
100
AcDbLine
 10
74.57192738140031
 20
23.52487195936921
 30
0.0
 11
74.77791220504956
 21
23.52487195936921
 31
0.0
  0
LINE
  5
421
330
1F
100
AcDbEntity
  8
破線
100
AcDbLine
 10
77.27791220504956
 20
25.02487195936921
 30
0.0
 11
76.01618346905223
 21
25.02487195936921
 31
0.0
  0
LINE
  5
422
330
1F
100
AcDbEntity
  8
破線
100
AcDbLine
 10
40.33389702869885
 20
23.52487195936921
 30
0.0
 11
40.1279122050496
 21
23.52487195936921
 31
0.0
  0
LINE
  5
423
330
1F
100
AcDbEntity
  8
破線
100
AcDbLine
 10
41.36618346905223
 20
25.02487195936921
 30
0.0
 11
42.73964094104693
 21
25.02487195936921
 31
0.0
  0
LINE
  5
424
330
1F
100
AcDbEntity
  8
外形線
100
AcDbLine
 10
37.62791220504957
 20
25.27487195936922
 30
0.0
 11
37.62791220504957
 21
25.02487195936922
 31
0.0
  0
LINE
  5
425
330
1F
100
AcDbEntity
  8
破線
100
AcDbLine
 10
40.57166115777292
 20
23.69761771077538
 30
0.0
 11
40.89065521090493
 21
24.67938045655659
 31
0.0
  0
LINE
  5
426
330
1F
100
AcDbEntity
  8
破線
100
AcDbLine
 10
52.55291220504961
 20
24.73669687829215
 30
0.0
 11
52.55291220504961
 21
11.24987195936918
 31
0.0
  0
LINE
  5
427
330
1F
100
AcDbEntity
  8
破線
100
AcDbLine
 10
50.80291220504954
 20
24.86843270909174
 30
0.0
 11
50.80291220504954
 21
11.24987195936918
 31
0.0
  0
LINE
  5
428
330
1F
100
AcDbEntity
  8
破線
100
AcDbLine
 10
51.29029174939888
 20
23.52487195936921
 30
0.0
 11
51.29029174939888
 21
11.24987195936918
 31
0.0
  0
LINE
  5
429
330
1F
100
AcDbEntity
  8
破線
100
AcDbLine
 10
52.06553266070023
 20
23.52487195936921
 30
0.0
 11
52.06553266070023
 21
11.24987195936918
 31
0.0
  0
LINE
  5
42A
330
1F
100
AcDbEntity
  8
破線
100
AcDbLine
 10
41.00291220504963
 20
24.73669687829215
 30
0.0
 11
41.00291220504963
 21
11.24987195936918
 31
0.0
  0
LINE
  5
42B
330
1F
100
AcDbEntity
  8
破線
100
AcDbLine
 10
39.25291220504957
 20
24.86843270909174
 30
0.0
 11
39.25291220504957
 21
11.24987195936918
 31
0.0
  0
LINE
  5
42C
330
1F
100
AcDbEntity
  8
破線
100
AcDbLine
 10
40.51553266070027
 20
23.52487195936921
 30
0.0
 11
40.51553266070027
 21
11.24987195936918
 31
0.0
  0
LINE
  5
42D
330
1F
100
AcDbEntity
  8
破線
100
AcDbLine
 10
39.74029174939892
 20
23.52487195936921
 30
0.0
 11
39.74029174939892
 21
11.24987195936918
 31
0.0
  0
LINE
  5
42E
330
1F
100
AcDbEntity
  8
破線
100
AcDbLine
 10
39.68416325232671
 20
23.6976177107755
 30
0.0
 11
39.36516914709833
 21
24.67938061689287
 31
0.0
  0
LINE
  5
42F
330
1F
100
AcDbEntity
  8
破線
100
AcDbLine
 10
39.92192738140028
 20
23.52487195936921
 30
0.0
 11
40.1279122050496
 21
23.52487195936921
 31
0.0
  0
LINE
  5
430
330
1F
100
AcDbEntity
  8
破線
100
AcDbLine
 10
52.9161834690522
 20
25.02487195936921
 30
0.0
 11
57.45291220504959
 21
25.02487195936921
 31
0.0
  0
LINE
  5
431
330
1F
100
AcDbEntity
  8
破線
100
AcDbLine
 10
49.06618346905222
 20
25.02487195936921
 30
0.0
 11
50.43964094104689
 21
25.02487195936921
 31
0.0
  0
LINE
  5
432
330
1F
100
AcDbEntity
  8
破線
100
AcDbLine
 10
51.47192738140024
 20
23.52487195936921
 30
0.0
 11
51.67791220504954
 21
23.52487195936921
 31
0.0
  0
LINE
  5
433
330
1F
100
AcDbEntity
  8
破線
100
AcDbLine
 10
51.23416325232671
 20
23.6976177107755
 30
0.0
 11
50.91516914709831
 21
24.67938061689286
 31
0.0
  0
LINE
  5
434
330
1F
100
AcDbEntity
  8
破線
100
AcDbLine
 10
52.12166115777276
 20
23.69761771077539
 30
0.0
 11
52.44065521090479
 21
24.67938045655662
 31
0.0
  0
LINE
  5
435
330
1F
100
AcDbEntity
  8
破線
100
AcDbLine
 10
51.88389702869882
 20
23.52487195936921
 30
0.0
 11
51.67791220504954
 21
23.52487195936921
 31
0.0
  0
LINE
  5
436
330
1F
100
AcDbEntity
  8
破線
100
AcDbLine
 10
48.03389702869882
 20
23.52487195936921
 30
0.0
 11
47.82791220504956
 21
23.52487195936921
 31
0.0
  0
LINE
  5
437
330
1F
100
AcDbEntity
  8
破線
100
AcDbLine
 10
48.2716611577729
 20
23.69761771077539
 30
0.0
 11
48.59065521090493
 21
24.67938045655662
 31
0.0
  0
LINE
  5
438
330
1F
100
AcDbEntity
  8
破線
100
AcDbLine
 10
47.38416325232669
 20
23.69761771077552
 30
0.0
 11
47.06516914709829
 21
24.67938061689288
 31
0.0
  0
LINE
  5
439
330
1F
100
AcDbEntity
  8
破線
100
AcDbLine
 10
47.62192738140024
 20
23.52487195936921
 30
0.0
 11
47.82791220504956
 21
23.52487195936921
 31
0.0
  0
LINE
  5
43A
330
1F
100
AcDbEntity
  8
破線
100
AcDbLine
 10
45.2161834690522
 20
25.02487195936921
 30
0.0
 11
46.58964094104688
 21
25.02487195936921
 31
0.0
  0
LINE
  5
43B
330
1F
100
AcDbEntity
  8
破線
100
AcDbLine
 10
43.77192738140028
 20
23.52487195936921
 30
0.0
 11
43.97791220504958
 21
23.52487195936921
 31
0.0
  0
LINE
  5
43C
330
1F
100
AcDbEntity
  8
破線
100
AcDbLine
 10
43.5341632523266
 20
23.69761771077555
 30
0.0
 11
43.2151691470982
 21
24.67938061689291
 31
0.0
  0
LINE
  5
43D
330
1F
100
AcDbEntity
  8
破線
100
AcDbLine
 10
44.42166115777275
 20
23.69761771077536
 30
0.0
 11
44.74065521090476
 21
24.67938045655659
 31
0.0
  0
LINE
  5
43E
330
1F
100
AcDbEntity
  8
外形線
100
AcDbLine
 10
72.60291220504957
 20
9.74987195936918
 30
0.0
 11
72.60291220504957
 21
5.24987195936918
 31
0.0
  0
LINE
  5
43F
330
1F
100
AcDbEntity
  8
外形線
100
AcDbLine
 10
77.27791220504956
 20
9.74987195936918
 30
0.0
 11
77.27791220504956
 21
8.349871959369185
 31
0.0
  0
LINE
  5
440
330
1F
100
AcDbEntity
  8
破線
100
AcDbLine
 10
77.27791220504956
 20
11.24987195936918
 30
0.0
 11
57.45291220504959
 21
11.24987195936918
 31
0.0
  0
LINE
  5
441
330
1F
100
AcDbEntity
  8
外形線
100
AcDbLine
 10
77.27791220504956
 20
9.74987195936918
 30
0.0
 11
57.45291220504959
 21
9.74987195936918
 31
0.0
  0
LINE
  5
442
330
1F
100
AcDbEntity
  8
外形線
100
AcDbLine
 10
65.40291220504959
 20
9.74987195936918
 30
0.0
 11
65.40291220504959
 21
5.24987195936918
 31
0.0
  0
LINE
  5
443
330
1F
100
AcDbEntity
  8
外形線
100
AcDbLine
 10
37.6279122050496
 20
8.349871959369185
 30
0.0
 11
41.80291220504961
 21
8.349871959369185
 31
0.0
  0
LINE
  5
444
330
1F
100
AcDbEntity
  8
外形線
100
AcDbLine
 10
50.00291220504958
 20
8.349871959369185
 30
0.0
 11
57.45291220504959
 21
8.349871959369185
 31
0.0
  0
LINE
  5
445
330
1F
100
AcDbEntity
  8
外形線
100
AcDbLine
 10
42.30291220504961
 20
7.099871959369185
 30
0.0
 11
49.5029122050496
 21
7.099871959369185
 31
0.0
  0
LINE
  5
446
330
1F
100
AcDbEntity
  8
外形線
100
AcDbLine
 10
42.30291220504961
 20
5.24987195936918
 30
0.0
 11
49.5029122050496
 21
5.24987195936918
 31
0.0
  0
LINE
  5
447
330
1F
100
AcDbEntity
  8
外形線
100
AcDbLine
 10
73.10291220504956
 20
9.74987195936918
 30
0.0
 11
73.10291220504956
 21
8.349871959369185
 31
0.0
  0
LINE
  5
448
330
1F
100
AcDbEntity
  8
外形線
100
AcDbLine
 10
64.90291220504957
 20
9.74987195936918
 30
0.0
 11
64.90291220504957
 21
8.349871959369185
 31
0.0
  0
LINE
  5
449
330
1F
100
AcDbEntity
  8
外形線
100
AcDbLine
 10
77.27791220504956
 20
25.02487195936921
 30
0.0
 11
77.27791220504956
 21
9.74987195936918
 31
0.0
  0
LINE
  5
44A
330
1F
100
AcDbEntity
  8
外形線
100
AcDbLine
 10
76.52791220504956
 20
26.02487195936921
 30
0.0
 11
57.45291220504959
 21
26.02487195936921
 31
0.0
  0
LINE
  5
44B
330
1F
100
AcDbEntity
  8
外形線
100
AcDbLine
 10
15.60904404498603
 20
5.526265161619225
 30
0.0
 11
16.39584744386101
 21
7.099871959369217
 31
0.0
  0
LINE
  5
44C
330
1F
100
AcDbEntity
  8
外形線
100
AcDbLine
 10
-19.32915255613888
 20
9.849871959369156
 30
0.0
 11
-18.21003094696479
 21
10.49599712168175
 31
0.0
  0
LINE
  5
44D
330
1F
100
AcDbEntity
  8
外形線
100
AcDbLine
 10
-19.32915255613887
 20
9.849871959369163
 30
0.0
 11
-20.44827416531296
 21
10.49599712168175
 31
0.0
  0
LINE
  5
44E
330
1F
100
AcDbEntity
  8
破線
100
AcDbLine
 10
70.72192738140031
 20
23.52487195936921
 30
0.0
 11
70.92791220504953
 21
23.52487195936921
 31
0.0
  0
LINE
  5
44F
330
1F
100
AcDbEntity
  8
破線
100
AcDbLine
 10
-4.746527363014132
 20
23.53000233921509
 30
0.0
 11
-4.876013649829058
 21
24.01325174049182
 31
0.0
  0
LINE
  5
450
330
1F
100
AcDbEntity
  8
破線
100
AcDbLine
 10
2.638222250736461
 20
23.53000233921509
 30
0.0
 11
2.767708537551389
 21
24.01325174049182
 31
0.0
  0
LINE
  5
451
330
1F
100
AcDbEntity
  8
外形線
100
AcDbLine
 10
-55.37915255613874
 20
11.74987195936918
 30
0.0
 11
-55.37915255613874
 21
9.74987195936918
 31
0.0
  0
LINE
  5
453
330
1F
100
AcDbEntity
  8
外形線
100
AcDbLine
 10
-22.63209070099197
 20
9.875212111273384
 30
0.0
 11
-22.40298072630942
 21
11.24987195936918
 31
0.0
  0
LINE
  5
454
330
1F
100
AcDbEntity
  8
外形線
100
AcDbLine
 10
-52.57621441128559
 20
9.875212111273377
 30
0.0
 11
-52.80532438596825
 21
11.24987195936918
 31
0.0
  0
LINE
  5
455
330
1F
100
AcDbEntity
  8
外形線
100
AcDbLine
 10
-17.82915255613881
 20
46.75362889301323
 30
0.0
 11
-20.82915255613881
 21
46.75362889301323
 31
0.0
  0
LINE
  5
456
330
1F
100
AcDbEntity
  8
外形線
100
AcDbLine
 10
-17.82915255613881
 20
76.40362889301326
 30
0.0
 11
-20.82915255613881
 21
76.40362889301326
 31
0.0
  0
LINE
  5
457
330
1F
100
AcDbEntity
  8
外形線
100
AcDbLine
 10
-19.32915255613881
 20
76.40362889301326
 30
0.0
 11
-19.32915255613881
 21
46.75362889301323
 31
0.0
  0
ARC
  5
4A6
330
1F
100
AcDbEntity
  8
外形線
100
AcDbCircle
 10
-21.57915255613881
 20
42.50362889301323
 30
0.0
 40
0.75
100
AcDbArc
 50
270.0
 51
0.0
  0
ARC
  5
4A7
330
1F
100
AcDbEntity
  8
破線
100
AcDbCircle
 10
-15.82915255613887
 20
45.49190015701592
 30
0.0
 40
0.5
100
AcDbArc
 50
180.0
 51
252.0000000000003
  0
ARC
  5
4A8
330
1F
100
AcDbEntity
  8
外形線
100
AcDbCircle
 10
-37.6041525561388
 20
9.242191467817818
 30
0.0
 40
16.78268049155139
100
AcDbArc
 50
90.00000000000005
 51
178.2665231789537
  0
ARC
  5
4A9
330
1F
100
AcDbEntity
  8
外形線
100
AcDbCircle
 10
-37.6041525561388
 20
9.242191467817818
 30
0.0
 40
16.78268049155139
100
AcDbArc
 50
1.733476821046311
 51
90.00000000000005
  0
ARC
  5
4AA
330
1F
100
AcDbEntity
  8
外形線
100
AcDbCircle
 10
-1.054152556138888
 20
9.242191467817818
 30
0.0
 40
16.78268049155139
100
AcDbArc
 50
90.00000000000005
 51
178.2665231789537
  0
ARC
  5
4AB
330
1F
100
AcDbEntity
  8
破線
100
AcDbCircle
 10
-41.90897656297353
 20
23.88384221794055
 30
0.0
 40
0.5
100
AcDbArc
 50
15.00000000000036
 51
106.9393137428116
  0
ARC
  5
4AC
330
1F
100
AcDbEntity
  8
破線
100
AcDbCircle
 10
-15.07915255613881
 20
67.14764406936393
 30
0.0
 40
0.25
100
AcDbArc
 50
287.9999999999991
 51
0.0
  0
ARC
  5
4AD
330
1F
100
AcDbEntity
  8
外形線
100
AcDbCircle
 10
14.72084744386115
 20
5.749871959369183
 30
0.0
 40
0.5
100
AcDbArc
 50
180.0
 51
270.0
  0
ARC
  5
4AE
330
1F
100
AcDbEntity
  8
外形線
100
AcDbCircle
 10
-16.53773036243717
 20
8.599871959369185
 30
0.0
 40
0.25
100
AcDbArc
 50
182.0000000000004
 51
270.0
  0
ARC
  5
4AF
330
1F
100
AcDbEntity
  8
破線
100
AcDbCircle
 10
-40.81356444986956
 20
23.65941186176633
 30
0.0
 40
0.5
100
AcDbArc
 50
194.9999999999999
 51
282.9927319985793
  0
ARC
  5
4B0
330
1F
100
AcDbEntity
  8
外形線
100
AcDbCircle
 10
14.86458983737066
 20
9.599871959369185
 30
0.0
 40
0.15
100
AcDbArc
 50
90.00000000000005
 51
177.9999999999996
  0
ARC
  5
4B1
330
1F
100
AcDbEntity
  8
外形線
100
AcDbCircle
 10
-16.47915255613893
 20
8.49987195936918
 30
0.0
 40
0.15
100
AcDbArc
 50
270.0
 51
0.0
  0
ARC
  5
4B2
330
1F
100
AcDbEntity
  8
外形線
100
AcDbCircle
 10
-21.67661874836631
 20
9.899871959369164
 30
0.0
 40
0.15
100
AcDbArc
 50
181.9999999999996
 51
270.0
  0
ARC
  5
4B3
330
1F
100
AcDbEntity
  8
外形線
100
AcDbCircle
 10
-16.02706559936462
 20
10.99987195936918
 30
0.0
 40
1.25
100
AcDbArc
 50
270.0
 51
355.227780342357
  0
ARC
  5
4B4
330
1F
100
AcDbEntity
  8
外形線
100
AcDbCircle
 10
-1.054152556138888
 20
9.74987195936918
 30
0.0
 40
15.27500000000003
100
AcDbArc
 50
90.00000000000005
 51
180.0
  0
ARC
  5
4B5
330
1F
100
AcDbEntity
  8
外形線
100
AcDbCircle
 10
-1.054152556138888
 20
9.74987195936918
 30
0.0
 40
13.77499999999998
100
AcDbArc
 50
90.00000000000005
 51
175.227780342357
  0
ARC
  5
4B6
330
1F
100
AcDbEntity
  8
外形線
100
AcDbCircle
 10
-37.6041525561388
 20
9.74987195936918
 30
0.0
 40
13.77499999999998
100
AcDbArc
 50
10.50923569844457
 51
90.00000000000005
  0
ARC
  5
4B7
330
1F
100
AcDbEntity
  8
外形線
100
AcDbCircle
 10
-37.6041525561388
 20
9.74987195936918
 30
0.0
 40
15.27500000000003
100
AcDbArc
 50
5.635509030984594
 51
90.00000000000005
  0
ARC
  5
4B8
330
1F
100
AcDbEntity
  8
外形線
100
AcDbCircle
 10
-23.60020060957601
 20
12.51843745044197
 30
0.0
 40
0.5
100
AcDbArc
 50
191.1831025433293
 51
240.0
  0
ARC
  5
4B9
330
1F
100
AcDbEntity
  8
破線
100
AcDbCircle
 10
-37.6041525561388
 20
9.74987195936918
 30
0.0
 40
15.27500000000003
100
AcDbArc
 50
0.0
 51
5.635509030984594
  0
ARC
  5
4BA
330
1F
100
AcDbEntity
  8
外形線
100
AcDbCircle
 10
-22.11527541252679
 20
10.99987195936918
 30
0.0
 40
0.25
100
AcDbArc
 50
2.000000000000392
 51
90.00000000000005
  0
ARC
  5
4BB
330
1F
100
AcDbEntity
  8
外形線
100
AcDbCircle
 10
-22.8075360560269
 20
9.899871959369178
 30
0.0
 40
0.15
100
AcDbArc
 50
205.0629851853093
 51
270.0000000000001
  0
ARC
  5
4BC
330
1F
100
AcDbEntity
  8
外形線
100
AcDbCircle
 10
-1.054152556138888
 20
9.74987195936918
 30
0.0
 40
13.77499999999998
100
AcDbArc
 50
4.77221965764297
 51
90.00000000000005
  0
ARC
  5
4BD
330
1F
100
AcDbEntity
  8
外形線
100
AcDbCircle
 10
-1.054152556138888
 20
9.74987195936918
 30
0.0
 40
15.27500000000003
100
AcDbArc
 50
0.0
 51
90.00000000000005
  0
ARC
  5
4BE
330
1F
100
AcDbEntity
  8
外形線
100
AcDbCircle
 10
-51.63969684893928
 20
12.35354655594141
 30
0.0
 40
0.5
100
AcDbArc
 50
334.937014814692
 51
349.4907643015555
  0
ARC
  5
4BF
330
1F
100
AcDbEntity
  8
外形線
100
AcDbCircle
 10
-23.56860826333832
 20
12.35354655594141
 30
0.0
 40
0.5
100
AcDbArc
 50
190.5092356984446
 51
205.0629851853079
  0
ARC
  5
4C0
330
1F
100
AcDbEntity
  8
外形線
100
AcDbCircle
 10
-52.40076905625072
 20
9.899871959369178
 30
0.0
 40
0.15
100
AcDbArc
 50
270.0
 51
334.9370148146911
  0
ARC
  5
4C1
330
1F
100
AcDbEntity
  8
外形線
100
AcDbCircle
 10
13.91876048708684
 20
10.99987195936918
 30
0.0
 40
1.25
100
AcDbArc
 50
184.772219657643
 51
270.0000000000001
  0
ARC
  5
4C2
330
1F
100
AcDbEntity
  8
外形線
100
AcDbCircle
 10
14.37084744386115
 20
8.49987195936918
 30
0.0
 40
0.15
100
AcDbArc
 50
180.0
 51
270.0000000000001
  0
ARC
  5
4C3
330
1F
100
AcDbEntity
  8
外形線
100
AcDbCircle
 10
14.42942525015937
 20
8.599871959369185
 30
0.0
 40
0.25
100
AcDbArc
 50
270.0000000000001
 51
357.9999999999996
  0
ARC
  5
4C4
330
1F
100
AcDbEntity
  8
外形線
100
AcDbCircle
 10
-53.09302969975078
 20
10.99987195936918
 30
0.0
 40
0.25
100
AcDbArc
 50
90.00000000000005
 51
177.9999999999996
  0
ARC
  5
4C5
330
1F
100
AcDbEntity
  8
破線
100
AcDbCircle
 10
-37.6041525561388
 20
9.74987195936918
 30
0.0
 40
15.27500000000003
100
AcDbArc
 50
174.3644909690154
 51
180.0
  0
ARC
  5
4C6
330
1F
100
AcDbEntity
  8
外形線
100
AcDbCircle
 10
-51.60810450270161
 20
12.51843745044197
 30
0.0
 40
0.5
100
AcDbArc
 50
300.0
 51
348.8168974566706
  0
ARC
  5
4C7
330
1F
100
AcDbEntity
  8
外形線
100
AcDbCircle
 10
-37.6041525561388
 20
9.74987195936918
 30
0.0
 40
15.27500000000003
100
AcDbArc
 50
90.00000000000005
 51
174.3644909690154
  0
ARC
  5
4C8
330
1F
100
AcDbEntity
  8
外形線
100
AcDbCircle
 10
-1.054152556138888
 20
9.242191467817818
 30
0.0
 40
16.78268049155139
100
AcDbArc
 50
1.733476821046311
 51
90.00000000000005
  0
ARC
  5
4C9
330
1F
100
AcDbEntity
  8
外形線
100
AcDbCircle
 10
-37.6041525561388
 20
9.74987195936918
 30
0.0
 40
13.77499999999998
100
AcDbArc
 50
90.00000000000005
 51
169.4907643015554
  0
ARC
  5
4CA
330
1F
100
AcDbEntity
  8
外形線
100
AcDbCircle
 10
-17.07915255613881
 20
42.50362889301323
 30
0.0
 40
0.75
100
AcDbArc
 50
180.0
 51
270.0
  0
ARC
  5
4CB
330
1F
100
AcDbEntity
  8
外形線
100
AcDbCircle
 10
14.97084744386115
 20
42.50362889301323
 30
0.0
 40
0.75
100
AcDbArc
 50
270.0
 51
0.0
  0
ARC
  5
4CC
330
1F
100
AcDbEntity
  8
破線
100
AcDbCircle
 10
-15.07915255613881
 20
78.69764406936394
 30
0.0
 40
0.25
100
AcDbArc
 50
287.9999999999991
 51
0.0
  0
ARC
  5
4CD
330
1F
100
AcDbEntity
  8
破線
100
AcDbCircle
 10
-15.07915255613881
 20
44.45961371666254
 30
0.0
 40
0.25
100
AcDbArc
 50
0.0
 51
72.00000000000102
  0
ARC
  5
4CE
330
1F
100
AcDbEntity
  8
外形線
100
AcDbCircle
 10
-17.07915255613881
 20
80.65362889301326
 30
0.0
 40
0.75
100
AcDbArc
 50
90.0
 51
180.0
  0
ARC
  5
4CF
330
1F
100
AcDbEntity
  8
外形線
100
AcDbCircle
 10
-16.97289494964844
 20
9.599871959369185
 30
0.0
 40
0.15
100
AcDbArc
 50
2.000000000000799
 51
90.00000000000005
  0
ARC
  5
4D0
330
1F
100
AcDbEntity
  8
破線
100
AcDbCircle
 10
-15.82915255613887
 20
80.14190015701601
 30
0.0
 40
0.5
100
AcDbArc
 50
180.0
 51
252.0000000000011
  0
ARC
  5
4D1
330
1F
100
AcDbEntity
  8
破線
100
AcDbCircle
 10
-15.07915255613881
 20
56.00961371666255
 30
0.0
 40
0.25
100
AcDbArc
 50
0.0
 51
72.00000000000102
  0
ARC
  5
4D2
330
1F
100
AcDbEntity
  8
破線
100
AcDbCircle
 10
-15.82915255613887
 20
43.01535762901053
 30
0.0
 40
0.5
100
AcDbArc
 50
107.9999999999988
 51
180.0
  0
ARC
  5
4D3
330
1F
100
AcDbEntity
  8
外形線
100
AcDbCircle
 10
14.97084744386115
 20
80.65362889301326
 30
0.0
 40
0.75
100
AcDbArc
 50
0.0
 51
89.99999999999996
  0
ARC
  5
4D4
330
1F
100
AcDbEntity
  8
破線
100
AcDbCircle
 10
12.97084744386115
 20
44.04764406936391
 30
0.0
 40
0.25
100
AcDbArc
 50
180.0
 51
252.0000000000011
  0
ARC
  5
4D5
330
1F
100
AcDbEntity
  8
破線
100
AcDbCircle
 10
13.7208474438612
 20
54.56535762901054
 30
0.0
 40
0.5
100
AcDbArc
 50
0.0
 51
72.00000000000102
  0
ARC
  5
4D6
330
1F
100
AcDbEntity
  8
外形線
100
AcDbCircle
 10
-54.87915255613878
 20
67.46855596887645
 30
0.0
 40
0.5
100
AcDbArc
 50
0.0
 51
63.6098972242919
  0
ARC
  5
4D7
330
1F
100
AcDbEntity
  8
破線
100
AcDbCircle
 10
12.97084744386115
 20
55.59764406936393
 30
0.0
 40
0.25
100
AcDbArc
 50
180.0
 51
252.0000000000011
  0
ARC
  5
4D8
330
1F
100
AcDbEntity
  8
破線
100
AcDbCircle
 10
13.7208474438612
 20
57.04190015701591
 30
0.0
 40
0.5
100
AcDbArc
 50
287.9999999999999
 51
359.9999999999996
  0
ARC
  5
4D9
330
1F
100
AcDbEntity
  8
外形線
100
AcDbCircle
 10
-54.88683304769018
 20
77.66855596887649
 30
0.0
 40
0.5
100
AcDbArc
 50
116.3901027757081
 51
180.0
  0
ARC
  5
4DA
330
1F
100
AcDbEntity
  8
破線
100
AcDbCircle
 10
13.7208474438612
 20
45.49190015701592
 30
0.0
 40
0.5
100
AcDbArc
 50
287.9999999999999
 51
359.9999999999996
  0
ARC
  5
4DB
330
1F
100
AcDbEntity
  8
破線
100
AcDbCircle
 10
12.97084744386115
 20
44.45961371666254
 30
0.0
 40
0.25
100
AcDbArc
 50
107.9999999999988
 51
180.0
  0
ARC
  5
4DC
330
1F
100
AcDbEntity
  8
破線
100
AcDbCircle
 10
-15.82915255613887
 20
57.04190015701591
 30
0.0
 40
0.5
100
AcDbArc
 50
180.0
 51
252.0000000000003
  0
ARC
  5
4DD
330
1F
100
AcDbEntity
  8
破線
100
AcDbCircle
 10
-15.07915255613881
 20
55.59764406936393
 30
0.0
 40
0.25
100
AcDbArc
 50
287.9999999999989
 51
0.0
  0
ARC
  5
4DE
330
1F
100
AcDbEntity
  8
破線
100
AcDbCircle
 10
12.97084744386115
 20
56.00961371666255
 30
0.0
 40
0.25
100
AcDbArc
 50
107.9999999999988
 51
180.0
  0
ARC
  5
4DF
330
1F
100
AcDbEntity
  8
破線
100
AcDbCircle
 10
-15.07915255613881
 20
79.10961371666258
 30
0.0
 40
0.25
100
AcDbArc
 50
0.0
 51
72.00000000000115
  0
ARC
  5
4E0
330
1F
100
AcDbEntity
  8
破線
100
AcDbCircle
 10
13.7208474438612
 20
80.14190015701601
 30
0.0
 40
0.5
100
AcDbArc
 50
287.9999999999991
 51
0.0
  0
ARC
  5
4E1
330
1F
100
AcDbEntity
  8
破線
100
AcDbCircle
 10
-15.82915255613887
 20
68.59190015701597
 30
0.0
 40
0.5
100
AcDbArc
 50
180.0
 51
252.0000000000011
  0
ARC
  5
4E2
330
1F
100
AcDbEntity
  8
破線
100
AcDbCircle
 10
12.97084744386115
 20
67.14764406936393
 30
0.0
 40
0.25
100
AcDbArc
 50
180.0
 51
252.000000000001
  0
ARC
  5
4E3
330
1F
100
AcDbEntity
  8
破線
100
AcDbCircle
 10
-15.07915255613881
 20
67.55961371666256
 30
0.0
 40
0.25
100
AcDbArc
 50
0.0
 51
72.00000000000115
  0
ARC
  5
4E4
330
1F
100
AcDbEntity
  8
破線
100
AcDbCircle
 10
-15.82915255613887
 20
66.11535762901056
 30
0.0
 40
0.5
100
AcDbArc
 50
107.9999999999997
 51
180.0
  0
ARC
  5
4E5
330
1F
100
AcDbEntity
  8
破線
100
AcDbCircle
 10
12.97084744386115
 20
78.69764406936394
 30
0.0
 40
0.25
100
AcDbArc
 50
180.0
 51
252.000000000001
  0
ARC
  5
4E6
330
1F
100
AcDbEntity
  8
破線
100
AcDbCircle
 10
13.7208474438612
 20
77.6653576290106
 30
0.0
 40
0.5
100
AcDbArc
 50
0.0
 51
72.00000000000033
  0
ARC
  5
4E7
330
1F
100
AcDbEntity
  8
破線
100
AcDbCircle
 10
13.7208474438612
 20
66.11535762901056
 30
0.0
 40
0.5
100
AcDbArc
 50
0.0
 51
72.00000000000033
  0
ARC
  5
4E8
330
1F
100
AcDbEntity
  8
破線
100
AcDbCircle
 10
12.97084744386115
 20
67.55961371666256
 30
0.0
 40
0.25
100
AcDbArc
 50
107.9999999999988
 51
180.0
  0
ARC
  5
4E9
330
1F
100
AcDbEntity
  8
破線
100
AcDbCircle
 10
13.7208474438612
 20
68.59190015701597
 30
0.0
 40
0.5
100
AcDbArc
 50
287.9999999999991
 51
0.0
  0
ARC
  5
4EA
330
1F
100
AcDbEntity
  8
破線
100
AcDbCircle
 10
12.97084744386115
 20
79.10961371666258
 30
0.0
 40
0.25
100
AcDbArc
 50
107.9999999999988
 51
180.0
  0
ARC
  5
4EB
330
1F
100
AcDbEntity
  8
外形線
100
AcDbCircle
 10
-54.88683304769018
 20
68.58870181715002
 30
0.0
 40
0.5
100
AcDbArc
 50
180.0
 51
243.6098972242919
  0
ARC
  5
4EC
330
1F
100
AcDbEntity
  8
外形線
100
AcDbCircle
 10
-54.87915255613878
 20
78.78870181715001
 30
0.0
 40
0.5
100
AcDbArc
 50
296.390102775708
 51
0.0
  0
ARC
  5
4ED
330
1F
100
AcDbEntity
  8
外形線
100
AcDbCircle
 10
-53.62915255613878
 20
80.65362889301326
 30
0.0
 40
0.75
100
AcDbArc
 50
90.0
 51
180.0
  0
ARC
  5
4EE
330
1F
100
AcDbEntity
  8
破線
100
AcDbCircle
 10
-15.82915255613887
 20
77.6653576290106
 30
0.0
 40
0.5
100
AcDbArc
 50
107.9999999999997
 51
180.0
  0
ARC
  5
4EF
330
1F
100
AcDbEntity
  8
破線
100
AcDbCircle
 10
-15.82915255613887
 20
54.56535762901054
 30
0.0
 40
0.5
100
AcDbArc
 50
107.9999999999988
 51
180.0
  0
ARC
  5
4F0
330
1F
100
AcDbEntity
  8
破線
100
AcDbCircle
 10
13.7208474438612
 20
43.01535762901053
 30
0.0
 40
0.5
100
AcDbArc
 50
0.0
 51
72.00000000000102
  0
ARC
  5
4F1
330
1F
100
AcDbEntity
  8
破線
100
AcDbCircle
 10
-15.07915255613881
 20
44.04764406936391
 30
0.0
 40
0.25
100
AcDbArc
 50
287.9999999999989
 51
0.0
  0
ARC
  5
4F2
330
1F
100
AcDbEntity
  8
外形線
100
AcDbCircle
 10
-53.62915255613878
 20
42.50362889301323
 30
0.0
 40
0.75
100
AcDbArc
 50
180.0
 51
270.0
  0
ARC
  5
4F3
330
1F
100
AcDbEntity
  8
外形線
100
AcDbCircle
 10
-54.87915255613878
 20
44.36855596887648
 30
0.0
 40
0.5
100
AcDbArc
 50
0.0
 51
63.6098972242919
  0
ARC
  5
4F4
330
1F
100
AcDbEntity
  8
外形線
100
AcDbCircle
 10
-54.88683304769018
 20
54.56855596887646
 30
0.0
 40
0.5
100
AcDbArc
 50
116.3901027757081
 51
180.0
  0
ARC
  5
4F5
330
1F
100
AcDbEntity
  8
外形線
100
AcDbCircle
 10
-54.88683304769018
 20
45.48870181715002
 30
0.0
 40
0.5
100
AcDbArc
 50
180.0
 51
243.6098972242919
  0
ARC
  5
4F6
330
1F
100
AcDbEntity
  8
外形線
100
AcDbCircle
 10
-54.87915255613878
 20
55.68870181715005
 30
0.0
 40
0.5
100
AcDbArc
 50
296.390102775708
 51
0.0
  0
ARC
  5
4F7
330
1F
100
AcDbEntity
  8
外形線
100
AcDbCircle
 10
-21.57915255613881
 20
80.65362889301326
 30
0.0
 40
0.75
100
AcDbArc
 50
0.0
 51
90.00000000000003
  0
ARC
  5
4F8
330
1F
100
AcDbEntity
  8
破線
100
AcDbCircle
 10
42.7396409410469
 20
24.52487195936921
 30
0.0
 40
0.5
100
AcDbArc
 50
18.00000000000017
 51
90.00000000000005
  0
ARC
  5
4F9
330
1F
100
AcDbEntity
  8
破線
100
AcDbCircle
 10
43.77192738140028
 20
23.77487195936921
 30
0.0
 40
0.25
100
AcDbArc
 50
198.000000000001
 51
269.9999999999999
  0
ARC
  5
4FA
330
1F
100
AcDbEntity
  8
破線
100
AcDbCircle
 10
44.18389702869885
 20
23.77487195936921
 30
0.0
 40
0.25
100
AcDbArc
 50
270.0000000000001
 51
341.999999999999
  0
ARC
  5
4FB
330
1F
100
AcDbEntity
  8
破線
100
AcDbCircle
 10
65.83964094104692
 20
24.52487195936921
 30
0.0
 40
0.5
100
AcDbArc
 50
18.00000000000017
 51
90.00000000000005
  0
ARC
  5
4FC
330
1F
100
AcDbEntity
  8
破線
100
AcDbCircle
 10
68.31618346905225
 20
24.52487195936921
 30
0.0
 40
0.5
100
AcDbArc
 50
90.00000000000005
 51
161.9999999999998
  0
ARC
  5
4FD
330
1F
100
AcDbEntity
  8
破線
100
AcDbCircle
 10
67.2838970286989
 20
23.77487195936921
 30
0.0
 40
0.25
100
AcDbArc
 50
270.0000000000001
 51
341.999999999999
  0
ARC
  5
4FE
330
1F
100
AcDbEntity
  8
破線
100
AcDbCircle
 10
66.87192738140033
 20
23.77487195936921
 30
0.0
 40
0.25
100
AcDbArc
 50
198.000000000001
 51
269.9999999999999
  0
ARC
  5
4FF
330
1F
100
AcDbEntity
  8
破線
100
AcDbCircle
 10
63.02192738140028
 20
23.77487195936921
 30
0.0
 40
0.25
100
AcDbArc
 50
198.000000000001
 51
269.9999999999999
  0
ARC
  5
500
330
1F
100
AcDbEntity
  8
破線
100
AcDbCircle
 10
63.43389702869888
 20
23.77487195936921
 30
0.0
 40
0.25
100
AcDbArc
 50
270.0000000000001
 51
341.999999999999
  0
ARC
  5
501
330
1F
100
AcDbEntity
  8
破線
100
AcDbCircle
 10
64.46618346905222
 20
24.52487195936921
 30
0.0
 40
0.5
100
AcDbArc
 50
90.00000000000005
 51
161.9999999999998
  0
ARC
  5
502
330
1F
100
AcDbEntity
  8
破線
100
AcDbCircle
 10
61.98964094104688
 20
24.52487195936921
 30
0.0
 40
0.5
100
AcDbArc
 50
18.00000000000017
 51
90.00000000000005
  0
ARC
  5
503
330
1F
100
AcDbEntity
  8
破線
100
AcDbCircle
 10
69.68964094104696
 20
24.52487195936921
 30
0.0
 40
0.5
100
AcDbArc
 50
18.00000000000017
 51
90.00000000000005
  0
ARC
  5
504
330
1F
100
AcDbEntity
  8
外形線
100
AcDbCircle
 10
38.37791220504957
 20
25.27487195936921
 30
0.0
 40
0.75
100
AcDbArc
 50
90.00000000000005
 51
180.0
  0
ARC
  5
505
330
1F
100
AcDbEntity
  8
破線
100
AcDbCircle
 10
41.36618346905223
 20
24.52487195936921
 30
0.0
 40
0.5
100
AcDbArc
 50
90.00000000000005
 51
161.9999999999998
  0
ARC
  5
506
330
1F
100
AcDbEntity
  8
破線
100
AcDbCircle
 10
76.01618346905223
 20
24.52487195936921
 30
0.0
 40
0.5
100
AcDbArc
 50
90.00000000000005
 51
161.9999999999998
  0
ARC
  5
507
330
1F
100
AcDbEntity
  8
破線
100
AcDbCircle
 10
74.98389702869889
 20
23.77487195936921
 30
0.0
 40
0.25
100
AcDbArc
 50
270.0000000000001
 51
341.999999999999
  0
ARC
  5
508
330
1F
100
AcDbEntity
  8
破線
100
AcDbCircle
 10
74.57192738140031
 20
23.77487195936921
 30
0.0
 40
0.25
100
AcDbArc
 50
198.000000000001
 51
269.9999999999999
  0
ARC
  5
509
330
1F
100
AcDbEntity
  8
破線
100
AcDbCircle
 10
73.53964094104691
 20
24.52487195936921
 30
0.0
 40
0.5
100
AcDbArc
 50
18.00000000000017
 51
90.00000000000005
  0
ARC
  5
50A
330
1F
100
AcDbEntity
  8
破線
100
AcDbCircle
 10
40.33389702869885
 20
23.77487195936921
 30
0.0
 40
0.25
100
AcDbArc
 50
270.0000000000001
 51
341.999999999999
  0
ARC
  5
50B
330
1F
100
AcDbEntity
  8
破線
100
AcDbCircle
 10
39.92192738140028
 20
23.77487195936921
 30
0.0
 40
0.25
100
AcDbArc
 50
198.000000000001
 51
269.9999999999999
  0
ARC
  5
50C
330
1F
100
AcDbEntity
  8
破線
100
AcDbCircle
 10
38.88964094104691
 20
24.52487195936921
 30
0.0
 40
0.5
100
AcDbArc
 50
18.00000000000017
 51
90.00000000000005
  0
ARC
  5
50D
330
1F
100
AcDbEntity
  8
破線
100
AcDbCircle
 10
45.2161834690522
 20
24.52487195936921
 30
0.0
 40
0.5
100
AcDbArc
 50
90.00000000000005
 51
161.9999999999998
  0
ARC
  5
50E
330
1F
100
AcDbEntity
  8
破線
100
AcDbCircle
 10
52.9161834690522
 20
24.52487195936921
 30
0.0
 40
0.5
100
AcDbArc
 50
90.00000000000005
 51
161.9999999999998
  0
ARC
  5
50F
330
1F
100
AcDbEntity
  8
破線
100
AcDbCircle
 10
50.43964094104689
 20
24.52487195936921
 30
0.0
 40
0.5
100
AcDbArc
 50
18.00000000000017
 51
90.00000000000005
  0
ARC
  5
510
330
1F
100
AcDbEntity
  8
破線
100
AcDbCircle
 10
51.47192738140024
 20
23.77487195936921
 30
0.0
 40
0.25
100
AcDbArc
 50
198.000000000001
 51
269.9999999999999
  0
ARC
  5
511
330
1F
100
AcDbEntity
  8
破線
100
AcDbCircle
 10
51.88389702869882
 20
23.77487195936921
 30
0.0
 40
0.25
100
AcDbArc
 50
270.0000000000001
 51
341.999999999999
  0
ARC
  5
512
330
1F
100
AcDbEntity
  8
破線
100
AcDbCircle
 10
48.03389702869882
 20
23.77487195936921
 30
0.0
 40
0.25
100
AcDbArc
 50
270.0000000000001
 51
341.999999999999
  0
ARC
  5
513
330
1F
100
AcDbEntity
  8
破線
100
AcDbCircle
 10
47.62192738140024
 20
23.77487195936921
 30
0.0
 40
0.25
100
AcDbArc
 50
198.000000000001
 51
269.9999999999999
  0
ARC
  5
514
330
1F
100
AcDbEntity
  8
破線
100
AcDbCircle
 10
46.58964094104688
 20
24.52487195936921
 30
0.0
 40
0.5
100
AcDbArc
 50
18.00000000000017
 51
90.00000000000005
  0
ARC
  5
515
330
1F
100
AcDbEntity
  8
破線
100
AcDbCircle
 10
49.06618346905222
 20
24.52487195936921
 30
0.0
 40
0.5
100
AcDbArc
 50
90.00000000000005
 51
161.9999999999998
  0
ARC
  5
516
330
1F
100
AcDbEntity
  8
外形線
100
AcDbCircle
 10
76.52791220504956
 20
25.27487195936921
 30
0.0
 40
0.75
100
AcDbArc
 50
0.0
 51
90.00000000000005
  0
ARC
  5
517
330
1F
100
AcDbEntity
  8
破線
100
AcDbCircle
 10
72.16618346905227
 20
24.52487195936921
 30
0.0
 40
0.5
100
AcDbArc
 50
90.00000000000005
 51
161.9999999999998
  0
ARC
  5
518
330
1F
100
AcDbEntity
  8
外形線
100
AcDbCircle
 10
15.16183044948622
 20
5.749871959369183
 30
0.0
 40
0.5
100
AcDbArc
 50
270.0
 51
333.4349488229228
  0
ARC
  5
519
330
1F
100
AcDbEntity
  8
外形線
100
AcDbCircle
 10
-19.94827416531297
 20
11.3620225254662
 30
0.0
 40
1.0
100
AcDbArc
 50
186.8463744236624
 51
240.0
  0
ARC
  5
51A
330
1F
100
AcDbEntity
  8
外形線
100
AcDbCircle
 10
-18.71003094696476
 20
11.3620225254662
 30
0.0
 40
1.0
100
AcDbArc
 50
300.0
 51
353.153625576338
  0
ARC
  5
51B
330
1F
100
AcDbEntity
  8
破線
100
AcDbCircle
 10
70.72192738140031
 20
23.77487195936921
 30
0.0
 40
0.25
100
AcDbArc
 50
198.000000000001
 51
269.9999999999999
  0
ARC
  5
51C
330
1F
100
AcDbEntity
  8
破線
100
AcDbCircle
 10
71.13389702869887
 20
23.77487195936921
 30
0.0
 40
0.25
100
AcDbArc
 50
270.0000000000001
 51
341.999999999999
  0
ARC
  5
51D
330
1F
100
AcDbEntity
  8
破線
100
AcDbCircle
 10
-34.39474066240804
 20
23.65941186176633
 30
0.0
 40
0.5
100
AcDbArc
 50
257.0072680014209
 51
345.0000000000001
  0
ARC
  5
51E
330
1F
100
AcDbEntity
  8
破線
100
AcDbCircle
 10
-33.29932854930405
 20
23.88384221794055
 30
0.0
 40
0.5
100
AcDbArc
 50
73.06068625718847
 51
164.9999999999996
  0
ARC
  5
51F
330
1F
100
AcDbEntity
  8
破線
100
AcDbCircle
 10
-5.358976562973652
 20
23.88384221794055
 30
0.0
 40
0.5
100
AcDbArc
 50
15.00000000000036
 51
106.9393137428116
  0
ARC
  5
520
330
1F
100
AcDbEntity
  8
破線
100
AcDbCircle
 10
-4.263564449869646
 20
23.65941186176633
 30
0.0
 40
0.5
100
AcDbArc
 50
194.9999999999999
 51
282.9927319985793
  0
ARC
  5
521
330
1F
100
AcDbEntity
  8
破線
100
AcDbCircle
 10
2.15525933759187
 20
23.65941186176633
 30
0.0
 40
0.5
100
AcDbArc
 50
257.0072680014209
 51
345.0000000000001
  0
ARC
  5
522
330
1F
100
AcDbEntity
  8
破線
100
AcDbCircle
 10
3.250671450695846
 20
23.88384221794055
 30
0.0
 40
0.5
100
AcDbArc
 50
73.06068625718847
 51
164.9999999999996
  0
ARC
  5
523
330
1F
100
AcDbEntity
  8
外形線
100
AcDbCircle
 10
-54.87915255613874
 20
11.74987195936918
 30
0.0
 40
0.5
100
AcDbArc
 50
90.00000000000005
 51
180.0
  0
ARC
  5
525
330
1F
100
AcDbEntity
  8
外形線
100
AcDbCircle
 10
-52.42825532271078
 20
9.899871959369164
 30
0.0
 40
0.15
100
AcDbArc
 50
189.4623222080275
 51
270.0
  0
ARC
  5
526
330
1F
100
AcDbEntity
  8
外形線
100
AcDbCircle
 10
-22.78004978956676
 20
9.899871959369164
 30
0.0
 40
0.15
100
AcDbArc
 50
270.0
 51
350.5376777919779
  0
DIMENSION
  5
596
330
1F
100
AcDbEntity
  8
寸法線
100
AcDbDimension
  2
*D2
 10
15.72084744386115
 20
-7.148915981421957
 30
0.0
 11
-1.054152556138829
 21
-7.148915981421957
 31
0.0
 70
   160
  1
Ｗ３
 71
     5
 42
33.54999999999996
  3
ISO-25
100
AcDbAlignedDimension
 13
-17.82915255613881
 23
9.74987195936918
 33
0.0
 14
15.72084744386115
 24
7.099871959369185
 34
0.0
 50
180.0
100
AcDbRotatedDimension
1001
ACAD
1000
DSTYLE
1002
{
1070
   278
1070
    46
1070
   147
1040
0.8000000119209291
1070
    77
1070
     1
1070
    74
1070
     0
1070
    73
1070
     0
1070
    42
1040
2.54
1070
    44
1040
1.143000000000001
1070
    76
1070
     0
1070
    75
1070
     0
1070
   279
1070
     0
1070
   271
1070
     0
1070
   173
1070
     1
1070
    41
1040
3.0
1070
   140
1040
3.200000047683716
1070
   344
1005
532
1070
   343
1005
532
1002
}
  0
DIMENSION
  5
5A3
330
1F
100
AcDbEntity
  8
寸法線
100
AcDbDimension
  2
*D3
 10
-54.37915255613874
 20
-7.148915981421957
 30
0.0
 11
-37.59163811716506
 21
-7.148915981421957
 31
0.0
 70
   160
  1
Ｗ１
 71
     5
 42
33.54999999999987
  3
ISO-25
100
AcDbAlignedDimension
 13
-20.82915255613887
 23
9.74987195936918
 33
0.0
 14
-54.37915255613874
 24
9.74987195936918
 34
0.0
100
AcDbRotatedDimension
1001
ACAD
1000
DSTYLE
1002
{
1070
   278
1070
    46
1070
   147
1040
0.8000000119209291
1070
    77
1070
     1
1070
    74
1070
     0
1070
    73
1070
     0
1070
    42
1040
2.54
1070
    44
1040
1.143000000000001
1070
    76
1070
     0
1070
    75
1070
     0
1070
   279
1070
     0
1070
   271
1070
     0
1070
   173
1070
     1
1070
    41
1040
3.0
1070
   140
1040
3.200000047683716
1070
   344
1005
532
1070
   343
1005
532
1002
}
  0
DIMENSION
  5
5B0
330
1F
100
AcDbEntity
  8
寸法線
100
AcDbDimension
  2
*D4
 10
-67.29724646039565
 20
26.02487195936922
 30
0.0
 11
-67.29724646039565
 21
17.88737195936918
 31
0.0
 70
   160
  1
h
 71
     5
 42
16.27500000000003
  3
ISO-25
100
AcDbAlignedDimension
 13
-55.37915255613874
 23
9.74987195936918
 33
0.0
 14
-37.6041525561388
 24
26.02487195936921
 34
0.0
 50
270.0
100
AcDbRotatedDimension
1001
ACAD
1000
DSTYLE
1002
{
1070
   278
1070
    46
1070
   147
1040
0.8000000119209291
1070
    77
1070
     1
1070
    74
1070
     0
1070
    73
1070
     0
1070
    42
1040
2.54
1070
    44
1040
2.286
1070
    76
1070
     0
1070
    75
1070
     0
1070
   279
1070
     0
1070
   271
1070
     0
1070
   173
1070
     1
1070
    41
1040
3.0
1070
   140
1040
3.200000047683716
1070
   344
1005
532
1070
   343
1005
532
1002
}
  0
DIMENSION
  5
5BD
330
1F
100
AcDbEntity
  8
寸法線
100
AcDbDimension
  2
*D5
 10
37.6279122050496
 20
-7.148915981421957
 30
0.0
 11
57.45291220504959
 21
-7.148915981421957
 31
0.0
 70
   160
  1
Ｌ
 71
     5
 42
39.64999999999996
  3
ISO-25
100
AcDbAlignedDimension
 13
77.27791220504956
 23
8.349871959369185
 33
0.0
 14
37.6279122050496
 24
9.74987195936918
 34
0.0
100
AcDbRotatedDimension
1001
ACAD
1000
DSTYLE
1002
{
1070
   278
1070
    46
1070
   147
1040
0.8000000119209291
1070
    77
1070
     1
1070
    74
1070
     0
1070
    73
1070
     0
1070
    42
1040
2.54
1070
    44
1040
1.143000000000001
1070
    76
1070
     0
1070
    75
1070
     0
1070
   279
1070
     0
1070
   271
1070
     0
1070
   173
1070
     1
1070
    41
1040
3.0
1070
   140
1040
3.200000047683716
1070
   344
1005
532
1070
   343
1005
532
1002
}
  0
DIMENSION
  5
5CA
330
1F
100
AcDbEntity
  8
寸法線
100
AcDbDimension
  2
*D6
 10
15.72084744386115
 20
-17.40807177851354
 30
0.0
 11
-19.32915255613881
 21
-17.40807177851354
 31
0.0
 70
   160
  1
Ｗ４
 71
     5
 42
70.0999999999999
  3
ISO-25
100
AcDbAlignedDimension
 13
-54.37915255613874
 23
7.209871959369181
 33
0.0
 14
15.72084744386115
 24
4.559871959369182
 34
0.0
 50
180.0
100
AcDbRotatedDimension
1001
ACAD
1000
DSTYLE
1002
{
1070
   278
1070
    46
1070
   147
1040
0.8000000119209291
1070
    77
1070
     1
1070
    74
1070
     0
1070
    73
1070
     0
1070
    42
1040
2.54
1070
    44
1040
2.286
1070
    76
1070
     0
1070
    75
1070
     0
1070
   279
1070
     0
1070
   271
1070
     0
1070
   173
1070
     1
1070
    41
1040
3.0
1070
   140
1040
3.200000047683716
1070
   344
1005
532
1070
   343
1005
532
1002
}
  0
DIMENSION
  5
5D7
330
1F
100
AcDbEntity
  8
寸法線
100
AcDbDimension
  2
*D7
 10
-67.29724646039564
 20
81.40362889301327
 30
0.0
 11
-67.29724646039565
 21
61.57862889301324
 31
0.0
 70
   160
  1
Ｌ
 71
     5
 42
39.65000000000003
  3
ISO-25
100
AcDbAlignedDimension
 13
-53.62915255613878
 23
41.75362889301323
 33
0.0
 14
-53.62915255613878
 24
81.40362889301327
 34
0.0
 50
270.0
100
AcDbRotatedDimension
1001
ACAD
1000
DSTYLE
1002
{
1070
   278
1070
    46
1070
   147
1040
0.8000000119209291
1070
    77
1070
     1
1070
    74
1070
     0
1070
    73
1070
     0
1070
    42
1040
2.54
1070
    44
1040
2.286
1070
    76
1070
     0
1070
    75
1070
     0
1070
   279
1070
     0
1070
   271
1070
     0
1070
   173
1070
     1
1070
    41
1040
3.0
1070
   140
1040
3.200000047683716
1070
   344
1005
532
1070
   343
1005
532
1002
}
  0
DIMENSION
  5
5E4
330
1F
100
AcDbEntity
  8
寸法線
100
AcDbDimension
  2
*D8
 10
-17.82915255613881
 20
-7.148915981421957
 30
0.0
 11
-15.35111060944155
 21
-1.823840851079467
 31
0.0
 70
   160
  1
Ｗ２
 71
     5
 42
3.000000000000063
  3
ISO-25
100
AcDbAlignedDimension
 13
-20.82915255613887
 23
-8.291915981421958
 33
0.0
 14
-17.82915255613881
 24
-8.291915981421958
 34
0.0
 50
180.0
100
AcDbRotatedDimension
1001
ACAD
1000
DSTYLE
1002
{
1070
    41
1040
3.0
1070
    42
1040
2.54
1070
    44
1040
2.286
1070
   140
1040
3.200000047683716
1070
   147
1040
0.8000000119209291
1070
   173
1070
     1
1070
   271
1070
     0
1070
   278
1070
    46
1070
   279
1070
     1
1070
   343
1005
532
1070
   344
1005
532
1002
}
  0
LINE
  5
5FB
330
1F
100
AcDbEntity
  8
外形線
100
AcDbLine
 10
-138.0
 20
95.0
 30
0.0
 11
138.5
 21
95.0
 31
0.0
  0
LINE
  5
5FC
330
1F
100
AcDbEntity
  8
外形線
100
AcDbLine
 10
138.5
 20
95.0
 30
0.0
 11
138.5
 21
-94.50000000000001
 31
0.0
  0
LINE
  5
5FD
330
1F
100
AcDbEntity
  8
外形線
100
AcDbLine
 10
-138.0
 20
-94.50000000000001
 30
0.0
 11
138.5
 21
-94.50000000000001
 31
0.0
  0
LINE
  5
5FE
330
1F
100
AcDbEntity
  8
外形線
100
AcDbLine
 10
-138.0
 20
95.0
 30
0.0
 11
-138.0
 21
-94.50000000000001
 31
0.0
  0
LINE
  5
62A
330
1F
100
AcDbEntity
  8
外形線
100
AcDbLine
 10
138.5
 20
-87.0
 30
0.0
 11
-38.0
 21
-87.0
 31
0.0
  0
LINE
  5
62B
330
1F
100
AcDbEntity
  8
外形線
100
AcDbLine
 10
-38.0
 20
-94.50000000000001
 30
0.0
 11
-38.0
 21
-87.0
 31
0.0
  0
LINE
  5
62C
330
1F
100
AcDbEntity
  8
外形線
100
AcDbLine
 10
52.0
 20
-94.50000000000001
 30
0.0
 11
52.0
 21
-87.0
 31
0.0
  0
TEXT
  5
62E
330
1F
100
AcDbEntity
  8
0
 62
     7
100
AcDbText
 10
-30.86665208425709
 20
-92.24333335558574
 30
0.0
 40
3.200000047683716
  1
ト゛レンレイヤ－用ソケット　（ＴＤＷ５０～８０）
 41
0.833333
 72
     4
 11
6.999999999999996
 21
-90.75000000000001
 31
0.0
100
AcDbText
  0
MTEXT
  5
7D1
330
1F
100
AcDbEntity
  8
VIEW0002
 62
     7
100
AcDbMText
 10
-57.124646242281
 20
-71.40417858517152
 30
0.0
 40
3.200000047683716
 41
0.0
 71
     7
 72
     1
  1
{\W0.833333;*形状は規格毎に異なります。}
 73
     1
 44
1.0
  0
MTEXT
  5
7D2
330
1F
100
AcDbEntity
  8
VIEW0002
 62
     7
100
AcDbMText
 10
-56.98465837840967
 20
-76.40206811045995
 30
0.0
 40
3.200000047683716
 41
0.0
 71
     7
 72
     1
  1
{\W0.833333;*ストッパ－の位置及び数は、規格毎に異なります。}
 73
     1
 44
1.0
  0
MTEXT
  5
7D3
330
1F
100
AcDbEntity
  8
VIEW0002
 62
     7
100
AcDbMText
 10
-57.21943592565218
 20
-81.63206439984795
 30
0.0
 40
3.200000047683716
 41
0.0
 71
     7
 72
     1
  1
{\W0.8333;*寸法、仕様等は製品改良の為、予告無く変更する場合があります。（Ｈ２８．４）}
 73
     1
 44
1.0
  0
MTEXT
  5
8D5
330
1F
100
AcDbEntity
  8
VIEW0001
 62
     7
100
AcDbMText
 10
59.89285540580749
 20
-93.0
 30
0.0
 40
4.5
 41
0.0
 71
     7
 72
     1
  1
{\W1.3889;　デンカ株式会社}
 73
     1
 44
1.0
  0
LINE
  5
961
330
1F
100
AcDbEntity
  8
0
  6
Continuous
 62
     7
100
AcDbLine
 10
-84.00284386158592
 20
-38.65107550040786
 30
0.0
 11
83.99715613841403
 21
-38.65107550040786
 31
0.0
  0
LINE
  5
962
330
1F
100
AcDbEntity
  8
0
  6
Continuous
 62
     7
100
AcDbLine
 10
-84.00284386158592
 20
-30.65107550040784
 30
0.0
 11
83.99715613841403
 21
-30.65107550040784
 31
0.0
  0
LINE
  5
963
330
1F
100
AcDbEntity
  8
0
  6
Continuous
 62
     7
100
AcDbLine
 10
-84.00284386158592
 20
-46.65107550040782
 30
0.0
 11
83.99715613841403
 21
-46.65107550040781
 31
0.0
  0
LINE
  5
964
330
1F
100
AcDbEntity
  8
0
  6
Continuous
 62
     7
100
AcDbLine
 10
-84.00284386158592
 20
-54.65107550040787
 30
0.0
 11
83.99715613841403
 21
-54.65107550040787
 31
0.0
  0
LINE
  5
965
330
1F
100
AcDbEntity
  8
0
  6
Continuous
 62
     7
100
AcDbLine
 10
-84.00284386158592
 20
-62.65107550040787
 30
0.0
 11
83.99715613841408
 21
-62.65107550040787
 31
0.0
  0
LINE
  5
966
330
1F
100
AcDbEntity
  8
0
  6
Continuous
 62
     7
100
AcDbLine
 10
-60.00284386158591
 20
-22.65107550040784
 30
0.0
 11
-60.00284386158591
 21
-62.65107550040787
 31
0.0
  0
LINE
  5
967
330
1F
100
AcDbEntity
  8
0
  6
Continuous
 62
     7
100
AcDbLine
 10
-84.00284386158592
 20
-22.65107550040784
 30
0.0
 11
-84.00284386158592
 21
-62.65107550040787
 31
0.0
  0
LINE
  5
968
330
1F
100
AcDbEntity
  8
0
  6
Continuous
 62
     7
100
AcDbLine
 10
-84.00284386158592
 20
-22.65107550040784
 30
0.0
 11
83.99715613841408
 21
-22.65107550040784
 31
0.0
  0
LINE
  5
969
330
1F
100
AcDbEntity
  8
0
  6
Continuous
 62
     7
100
AcDbLine
 10
-36.00284386158592
 20
-22.65107550040784
 30
0.0
 11
-36.00284386158592
 21
-62.65107550040787
 31
0.0
  0
LINE
  5
96A
330
1F
100
AcDbEntity
  8
0
  6
Continuous
 62
     7
100
AcDbLine
 10
-12.00284386158591
 20
-22.65107550040784
 30
0.0
 11
-12.00284386158591
 21
-62.65107550040787
 31
0.0
  0
LINE
  5
96B
330
1F
100
AcDbEntity
  8
0
  6
Continuous
 62
     7
100
AcDbLine
 10
11.99715613841408
 20
-22.65107550040784
 30
0.0
 11
11.99715613841408
 21
-62.65107550040787
 31
0.0
  0
LINE
  5
96C
330
1F
100
AcDbEntity
  8
0
  6
Continuous
 62
     7
100
AcDbLine
 10
35.99715613841409
 20
-22.65107550040784
 30
0.0
 11
35.99715613841409
 21
-62.65107550040787
 31
0.0
  0
LINE
  5
96D
330
1F
100
AcDbEntity
  8
0
  6
Continuous
 62
     7
100
AcDbLine
 10
59.99715613841408
 20
-22.65107550040784
 30
0.0
 11
59.99715613841408
 21
-62.65107550040787
 31
0.0
  0
MTEXT
  5
96E
330
1F
100
AcDbEntity
  8
0
 62
     7
100
AcDbMText
 10
-71.50142508768425
 20
-34.65107550040783
 30
0.0
 40
3.200000047683716
 41
0.0
 71
     5
 72
     1
  1
{\W0.83333;TDW50}
 73
     1
 44
1.0
  0
MTEXT
  5
96F
330
1F
100
AcDbEntity
  8
0
 62
     7
100
AcDbMText
 10
-71.50142508768425
 20
-42.65107550040784
 30
0.0
 40
3.200000047683716
 41
0.0
 71
     5
 72
     1
  1
{\W0.83333;TDW60}
 73
     1
 44
1.0
  0
MTEXT
  5
970
330
1F
100
AcDbEntity
  8
0
 62
     7
100
AcDbMText
 10
-71.27920375103958
 20
-50.65107550040783
 30
0.0
 40
3.200000047683716
 41
0.0
 71
     5
 72
     1
  1
{\W0.83333;TDW75}
 73
     1
 44
1.0
  0
MTEXT
  5
971
330
1F
100
AcDbEntity
  8
0
 62
     7
100
AcDbMText
 10
-72.00284386158592
 20
-58.65107550040787
 30
0.0
 40
3.200000047683716
 41
0.0
 71
     5
 72
     1
  1
{\W0.83333;TDW80}
 73
     1
 44
1.0
  0
MTEXT
  5
972
330
1F
100
AcDbEntity
  8
0
 62
     7
100
AcDbMText
 10
-74.74584386230117
 20
-28.2510755242497
 30
0.0
 40
3.200000047683716
 41
0.0
 71
     7
 72
     1
  1
{\W0.833333;規格}
 73
     1
 44
1.0
  0
MTEXT
  5
974
330
1F
100
AcDbEntity
  8
0
 62
     7
100
AcDbMText
 10
-26.74584386230117
 20
-28.2510755242497
 30
0.0
 40
3.200000047683716
 41
0.0
 71
     7
 72
     1
  1
{\W0.83333;Ｗ２}
 73
     1
 44
1.0
  0
MTEXT
  5
975
330
1F
100
AcDbEntity
  8
0
 62
     7
100
AcDbMText
 10
-2.745843862301171
 20
-28.2510755242497
 30
0.0
 40
3.200000047683716
 41
0.0
 71
     7
 72
     1
  1
{\W0.83333;Ｗ３}
 73
     1
 44
1.0
  0
MTEXT
  5
976
330
1F
100
AcDbEntity
  8
0
 62
     7
100
AcDbMText
 10
21.25415613769883
 20
-28.2510755242497
 30
0.0
 40
3.200000047683716
 41
0.0
 71
     7
 72
     1
  1
{\W0.83333;Ｗ４}
 73
     1
 44
1.0
  0
MTEXT
  5
977
330
1F
100
AcDbEntity
  8
0
 62
     7
100
AcDbMText
 10
47.99715613841408
 20
-26.65107550040784
 30
0.0
 40
3.200000047683716
 41
0.0
 71
     5
 72
     1
  1
{\W0.83333;Ｌ}
 73
     1
 44
1.0
  0
MTEXT
  5
978
330
1F
100
AcDbEntity
  8
0
 62
     7
100
AcDbMText
 10
47.65415521346159
 20
-34.65107550040783
 30
0.0
 40
3.200000047683716
 41
0.0
 71
     5
 72
     1
  1
{\W0.83333;７９}
 73
     1
 44
1.0
  0
MTEXT
  5
979
330
1F
100
AcDbEntity
  8
0
 62
     7
100
AcDbMText
 10
23.65415521346159
 20
-34.65107550040783
 30
0.0
 40
3.200000047683716
 41
0.0
 71
     5
 72
     1
  1
{\W0.83333;１４０}
 73
     1
 44
1.0
  0
MTEXT
  5
97A
330
1F
100
AcDbEntity
  8
0
 62
     7
100
AcDbMText
 10
-0.3458460069337832
 20
-34.65107550040783
 30
0.0
 40
3.200000047683716
 41
0.0
 71
     5
 72
     1
  1
{\W0.83333;６７}
 73
     1
 44
1.0
  0
MTEXT
  5
97B
330
1F
100
AcDbEntity
  8
0
 62
     7
100
AcDbMText
 10
-24.00284386158592
 20
-34.65107550040785
 30
0.0
 40
3.200000047683716
 41
0.0
 71
     5
 72
     1
  1
{\W0.83333;６}
 73
     1
 44
1.0
  0
MTEXT
  5
97C
330
1F
100
AcDbEntity
  8
0
 62
     7
100
AcDbMText
 10
-50.7458438623012
 20
-36.25107552424969
 30
0.0
 40
3.200000047683716
 41
0.0
 71
     7
 72
     1
  1
{\W0.83333;６７}
 73
     1
 44
1.0
  0
MTEXT
  5
97D
330
1F
100
AcDbEntity
  8
0
 62
     7
100
AcDbMText
 10
45.25415613769882
 20
-44.25107552424969
 30
0.0
 40
3.200000047683716
 41
0.0
 71
     7
 72
     1
  1
{\W0.83333;９４}
 73
     1
 44
1.0
  0
MTEXT
  5
97E
330
1F
100
AcDbEntity
  8
0
 62
     7
100
AcDbMText
 10
23.65415521346159
 20
-42.65107550040784
 30
0.0
 40
3.200000047683716
 41
0.0
 71
     5
 72
     1
  1
{\W0.83333;１６２}
 73
     1
 44
1.0
  0
MTEXT
  5
97F
330
1F
100
AcDbEntity
  8
0
 62
     7
100
AcDbMText
 10
-0.3458460069337832
 20
-42.65107550040784
 30
0.0
 40
3.200000047683716
 41
0.0
 71
     5
 72
     1
  1
{\W0.83333;７８}
 73
     1
 44
1.0
  0
MTEXT
  5
981
330
1F
100
AcDbEntity
  8
0
 62
     7
100
AcDbMText
 10
-48.34585342653856
 20
-42.65107550040784
 30
0.0
 40
3.200000047683716
 41
0.0
 71
     5
 72
     1
  1
{\W0.83333;７８}
 73
     1
 44
1.0
  0
MTEXT
  5
982
330
1F
100
AcDbEntity
  8
0
 62
     7
100
AcDbMText
 10
23.7430440681195
 20
-50.65107550040783
 30
0.0
 40
3.200000047683716
 41
0.0
 71
     5
 72
     1
  1
{\W0.83333;１９８}
 73
     1
 44
1.0
  0
MTEXT
  5
983
330
1F
100
AcDbEntity
  8
0
 62
     7
100
AcDbMText
 10
-48.34585342653856
 20
-50.65107550040783
 30
0.0
 40
3.200000047683716
 41
0.0
 71
     5
 72
     1
  1
{\W0.83333;９６}
 73
     1
 44
1.0
  0
MTEXT
  5
984
330
1F
100
AcDbEntity
  8
0
 62
     7
100
AcDbMText
 10
45.25415613769882
 20
-52.25107552424969
 30
0.0
 40
3.200000047683716
 41
0.0
 71
     7
 72
     1
  1
{\W0.83333;８７}
 73
     1
 44
1.0
  0
MTEXT
  5
985
330
1F
100
AcDbEntity
  8
0
 62
     7
100
AcDbMText
 10
-0.3458460069337832
 20
-50.65107550040783
 30
0.0
 40
3.200000047683716
 41
0.0
 71
     5
 72
     1
  1
{\W0.83333;９６}
 73
     1
 44
1.0
  0
MTEXT
  5
988
330
1F
100
AcDbEntity
  8
0
 62
     7
100
AcDbMText
 10
-0.6125131811051006
 20
-58.65107550040787
 30
0.0
 40
3.200000047683716
 41
0.0
 71
     5
 72
     1
  1
{\W0.83333;１０２}
 73
     1
 44
1.0
  0
MTEXT
  5
989
330
1F
100
AcDbEntity
  8
0
 62
     7
100
AcDbMText
 10
45.25415613769882
 20
-60.25107552424973
 30
0.0
 40
3.200000047683716
 41
0.0
 71
     7
 72
     1
  1
{\W0.83333;１１０}
 73
     1
 44
1.0
  0
MTEXT
  5
98A
330
1F
100
AcDbEntity
  8
0
 62
     7
100
AcDbMText
 10
-48.61252540070992
 20
-58.65107550040787
 30
0.0
 40
3.200000047683716
 41
0.0
 71
     5
 72
     1
  1
{\W0.83333;１０２}
 73
     1
 44
1.0
  0
MTEXT
  5
98B
330
1F
100
AcDbEntity
  8
0
 62
     7
100
AcDbMText
 10
23.65415521346159
 20
-58.65107550040787
 30
0.0
 40
3.200000047683716
 41
0.0
 71
     5
 72
     1
  1
{\W0.83333;２１０}
 73
     1
 44
1.0
  0
MTEXT
  5
98C
330
1F
100
AcDbEntity
  8
0
 62
     7
100
AcDbMText
 10
71.30709449055666
 20
-68.12458497232459
 30
0.0
 40
3.200000047683716
 41
0.0
 71
     7
 72
     1
  1
{\W0.833333;（ｍｍ）}
 73
     1
 44
1.0
  0
MTEXT
  5
999
330
1F
100
AcDbEntity
  8
0
100
AcDbMText
 10
-48.00284386158591
 20
-26.65107550040784
 30
0.0
 40
3.200000047683715
 41
24.0
 71
     5
 72
     5
  1
Ｗ１
 73
     1
 44
1.0
1001
ACAD
1000
ACAD_MTEXT_COLUMN_INFO_BEGIN
1070
    75
1070
     2
1070
    79
1070
     0
1070
    76
1070
     1
1070
    78
1070
     0
1070
    48
1040
24.0
1070
    49
1040
12.5
1070
    50
1070
     1
1040
0.0
1000
ACAD_MTEXT_COLUMN_INFO_END
  0
LINE
  5
99A
330
1F
100
AcDbEntity
  8
0
  6
Continuous
 62
     7
100
AcDbLine
 10
83.99715613841408
 20
-22.65107550040784
 30
0.0
 11
83.99715613841408
 21
-62.65107550040787
 31
0.0
  0
MTEXT
  5
9A1
330
1F
100
AcDbEntity
  8
0
 62
     7
100
AcDbMText
 10
71.99715613841409
 20
-26.65107550040784
 30
0.0
 40
3.200000047683716
 41
0.0
 71
     5
 72
     1
  1
{\W0.83333;h}
 73
     1
 44
1.0
  0
MTEXT
  5
9A2
330
1F
100
AcDbEntity
  8
0
 62
     7
100
AcDbMText
 10
71.65415521346159
 20
-34.65107550040783
 30
0.0
 40
3.200000047683716
 41
0.0
 71
     5
 72
     1
  1
{\W0.83333;３３}
 73
     1
 44
1.0
  0
MTEXT
  5
9A3
330
1F
100
AcDbEntity
  8
0
 62
     7
100
AcDbMText
 10
71.65415521346159
 20
-42.65107550040784
 30
0.0
 40
3.200000047683716
 41
0.0
 71
     5
 72
     1
  1
{\W0.83333;３８}
 73
     1
 44
1.0
  0
MTEXT
  5
9A4
330
1F
100
AcDbEntity
  8
0
 62
     7
100
AcDbMText
 10
71.65415521346159
 20
-50.65107550040783
 30
0.0
 40
3.200000047683716
 41
0.0
 71
     5
 72
     1
  1
{\W0.83333;４７}
 73
     1
 44
1.0
  0
MTEXT
  5
9A5
330
1F
100
AcDbEntity
  8
0
 62
     7
100
AcDbMText
 10
69.25415613769883
 20
-60.25107552424973
 30
0.0
 40
3.200000047683716
 41
0.0
 71
     7
 72
     1
  1
{\W0.83333;５０}
 73
     1
 44
1.0
  0
MTEXT
  5
A7F
330
1F
100
AcDbEntity
  8
0
 62
     7
100
AcDbMText
 10
-24.00284386158592
 20
-42.65107550040786
 30
0.0
 40
3.200000047683716
 41
0.0
 71
     5
 72
     1
  1
{\W0.83333;６}
 73
     1
 44
1.0
  0
MTEXT
  5
A80
330
1F
100
AcDbEntity
  8
0
 62
     7
100
AcDbMText
 10
-24.00284386158592
 20
-50.65107550040782
 30
0.0
 40
3.200000047683716
 41
0.0
 71
     5
 72
     1
  1
{\W0.83333;６}
 73
     1
 44
1.0
  0
MTEXT
  5
A81
330
1F
100
AcDbEntity
  8
0
 62
     7
100
AcDbMText
 10
-24.00284386158592
 20
-58.65107550040788
 30
0.0
 40
3.200000047683716
 41
0.0
 71
     5
 72
     1
  1
{\W0.83333;６}
 73
     1
 44
1.0
  0
ENDSEC
  0
SECTION
  2
OBJECTS
  0
DICTIONARY
  5
C
330
0
100
AcDbDictionary
281
     1
  3
ACAD_CIP_PREVIOUS_PRODUCT_INFO
350
8CB
  3
ACAD_COLOR
350
606
  3
ACAD_DETAILVIEWSTYLE
350
8C5
  3
ACAD_GROUP
350
D
  3
ACAD_LAYOUT
350
1A
  3
ACAD_MATERIAL
350
605
  3
ACAD_MLEADERSTYLE
350
8C1
  3
ACAD_MLINESTYLE
350
17
  3
ACAD_PLOTSETTINGS
350
19
  3
ACAD_PLOTSTYLENAME
350
E
  3
ACAD_SCALELIST
350
8AF
  3
ACAD_SECTIONVIEWSTYLE
350
8C3
  3
ACAD_TABLESTYLE
350
607
  3
ACAD_VISUALSTYLE
350
896
  3
ACDB_RECOMPOSE_DATA
350
AE8
  3
AcDbVariableDictionary
350
60C
  0
DICTIONARY
  5
8D6
330
10
100
AcDbDictionary
280
     1
281
     1
  3
ADSK_XREC_LAYER_RECONCILED
360
8D7
  0
DICTIONARY
  5
8D8
330
5F9
100
AcDbDictionary
280
     1
281
     1
  3
ADSK_XREC_LAYER_RECONCILED
360
8D9
  0
DICTIONARY
  5
8DA
330
61A
100
AcDbDictionary
280
     1
281
     1
  3
ADSK_XREC_LAYER_RECONCILED
360
8DB
  0
DICTIONARY
  5
8DC
330
61B
100
AcDbDictionary
280
     1
281
     1
  3
ADSK_XREC_LAYER_RECONCILED
360
8DD
  0
DICTIONARY
  5
8DE
330
61C
100
AcDbDictionary
280
     1
281
     1
  3
ADSK_XREC_LAYER_RECONCILED
360
8DF
  0
DICTIONARY
  5
8E0
330
61D
100
AcDbDictionary
280
     1
281
     1
  3
ADSK_XREC_LAYER_RECONCILED
360
8E1
  0
DICTIONARY
  5
8E2
330
61E
100
AcDbDictionary
280
     1
281
     1
  3
ADSK_XREC_LAYER_RECONCILED
360
8E3
  0
DICTIONARY
  5
8E4
330
61F
100
AcDbDictionary
280
     1
281
     1
  3
ADSK_XREC_LAYER_RECONCILED
360
8E5
  0
DICTIONARY
  5
8E6
330
620
100
AcDbDictionary
280
     1
281
     1
  3
ADSK_XREC_LAYER_RECONCILED
360
8E7
  0
DICTIONARY
  5
8E8
330
7C7
100
AcDbDictionary
280
     1
281
     1
  3
ADSK_XREC_LAYER_RECONCILED
360
8E9
  0
DICTIONARY
  5
628
330
1F
100
AcDbDictionary
280
     1
281
     1
  3
ACAD_SORTENTS
360
629
  0
DICTIONARY
  5
95C
330
92D
100
AcDbDictionary
280
     1
281
     1
  3
ACAD_SORTENTS
360
95D
  0
XRECORD
  5
8CB
102
{ACAD_REACTORS
330
C
102
}
330
C
100
AcDbXrecord
280
     1
300
ACDLT
300
2014
300
INVLTS_F_S
  0
DICTIONARY
  5
606
102
{ACAD_REACTORS
330
C
102
}
330
C
100
AcDbDictionary
281
     1
  0
DICTIONARY
  5
8C5
102
{ACAD_REACTORS
330
C
102
}
330
C
100
AcDbDictionary
281
     1
  3
Metric50
350
8C6
  0
DICTIONARY
  5
D
102
{ACAD_REACTORS
330
C
102
}
330
C
100
AcDbDictionary
281
     1
  0
DICTIONARY
  5
1A
102
{ACAD_REACTORS
330
C
102
}
330
C
100
AcDbDictionary
281
     1
  3
Layout1
350
1E
  3
Layout2
350
26
  3
Model
350
22
  0
DICTIONARY
  5
605
102
{ACAD_REACTORS
330
C
102
}
330
C
100
AcDbDictionary
281
     1
  3
ByBlock
350
886
  3
ByLayer
350
87E
  3
Global
350
88E
  0
DICTIONARY
  5
8C1
102
{ACAD_REACTORS
330
C
102
}
330
C
100
AcDbDictionary
281
     1
  3
Standard
350
8C2
  0
DICTIONARY
  5
17
102
{ACAD_REACTORS
330
C
102
}
330
C
100
AcDbDictionary
281
     1
  3
Standard
350
18
  0
DICTIONARY
  5
19
102
{ACAD_REACTORS
330
C
102
}
330
C
100
AcDbDictionary
281
     1
  3
セットアップ1
350
ACF
  0
ACDBDICTIONARYWDFLT
  5
E
102
{ACAD_REACTORS
330
C
102
}
330
C
100
AcDbDictionary
281
     1
  3
Normal
350
F
100
AcDbDictionaryWithDefault
340
F
  0
DICTIONARY
  5
8AF
102
{ACAD_REACTORS
330
C
102
}
330
C
100
AcDbDictionary
281
     1
  3
A0
350
8B0
  3
A1
350
8B1
  3
A2
350
8B2
  3
A3
350
8B3
  3
A4
350
8B4
  3
A5
350
8B5
  3
A6
350
8B6
  3
A7
350
8B7
  3
A8
350
8B8
  3
A9
350
8B9
  3
B0
350
8BA
  3
B1
350
8BB
  3
B2
350
8BC
  3
B3
350
8BD
  3
B4
350
8BE
  3
B5
350
8BF
  3
B6
350
8C0
  0
DICTIONARY
  5
8C3
102
{ACAD_REACTORS
330
C
102
}
330
C
100
AcDbDictionary
281
     1
  3
Metric50
350
8C4
  0
DICTIONARY
  5
607
102
{ACAD_REACTORS
330
C
102
}
330
C
100
AcDbDictionary
281
     1
  3
Standard
350
608
  0
DICTIONARY
  5
896
102
{ACAD_REACTORS
330
C
102
}
330
C
100
AcDbDictionary
281
     1
  3
2dWireframe
350
89C
  3
Basic
350
89B
  3
Brighten
350
8A2
  3
ColorChange
350
8A6
  3
Conceptual
350
89F
  3
Dim
350
8A1
  3
EdgeColorOff
350
8AE
  3
Facepattern
350
8A5
  3
Flat
350
897
  3
FlatWithEdges
350
898
  3
Gouraud
350
899
  3
GouraudWithEdges
350
89A
  3
Hidden
350
89E
  3
JitterOff
350
8AC
  3
Linepattern
350
8A4
  3
OverhangOff
350
8AD
  3
Realistic
350
8A0
  3
Shaded
350
8AB
  3
Shaded with edges
350
8AA
  3
Shades of Gray
350
8A7
  3
Sketchy
350
8A8
  3
Thicken
350
8A3
  3
Wireframe
350
89D
  3
X-Ray
350
8A9
  0
XRECORD
  5
AE8
102
{ACAD_REACTORS
330
C
102
}
330
C
100
AcDbXrecord
280
     1
 90
        1
330
608
330
999
  0
DICTIONARY
  5
60C
102
{ACAD_REACTORS
330
C
102
}
330
C
100
AcDbDictionary
281
     1
  3
CANNOSCALE
350
924
  3
CMLEADERSTYLE
350
920
  3
CTABLESTYLE
350
60D
  3
CVIEWDETAILSTYLE
350
921
  3
CVIEWSECTIONSTYLE
350
922
  3
DIMASSOC
350
60E
  3
LAYEREVAL
350
926
  3
LAYERNOTIFY
350
927
  3
LIGHTINGUNITS
350
925
  3
MSLTSCALE
350
923
  3
PROJECTNAME
350
60F
  0
XRECORD
  5
8D7
102
{ACAD_REACTORS
330
8D6
102
}
330
8D6
100
AcDbXrecord
280
     1
290
     1
  0
XRECORD
  5
8D9
102
{ACAD_REACTORS
330
8D8
102
}
330
8D8
100
AcDbXrecord
280
     1
290
     1
  0
XRECORD
  5
8DB
102
{ACAD_REACTORS
330
8DA
102
}
330
8DA
100
AcDbXrecord
280
     1
290
     1
  0
XRECORD
  5
8DD
102
{ACAD_REACTORS
330
8DC
102
}
330
8DC
100
AcDbXrecord
280
     1
290
     1
  0
XRECORD
  5
8DF
102
{ACAD_REACTORS
330
8DE
102
}
330
8DE
100
AcDbXrecord
280
     1
290
     1
  0
XRECORD
  5
8E1
102
{ACAD_REACTORS
330
8E0
102
}
330
8E0
100
AcDbXrecord
280
     1
290
     1
  0
XRECORD
  5
8E3
102
{ACAD_REACTORS
330
8E2
102
}
330
8E2
100
AcDbXrecord
280
     1
290
     1
  0
XRECORD
  5
8E5
102
{ACAD_REACTORS
330
8E4
102
}
330
8E4
100
AcDbXrecord
280
     1
290
     1
  0
XRECORD
  5
8E7
102
{ACAD_REACTORS
330
8E6
102
}
330
8E6
100
AcDbXrecord
280
     1
290
     1
  0
XRECORD
  5
8E9
102
{ACAD_REACTORS
330
8E8
102
}
330
8E8
100
AcDbXrecord
280
     1
290
     1
  0
SORTENTSTABLE
  5
629
102
{ACAD_REACTORS
330
628
102
}
330
628
100
AcDbSortentsTable
330
1F
331
271
  5
271
331
279
  5
279
331
2A8
  5
2A8
331
4D0
  5
4D0
331
412
  5
412
331
39C
  5
39C
331
326
  5
326
331
281
  5
281
331
2B0
  5
2B0
331
2EF
  5
2EF
331
365
  5
365
331
3DB
  5
3DB
331
451
  5
451
331
5FD
  5
627
331
4D8
  5
4D8
331
517
  5
517
331
41A
  5
41A
331
3A4
  5
3A4
331
32E
  5
32E
331
2F7
  5
2F7
331
24A
  5
24A
331
2B8
  5
2B8
331
36D
  5
36D
331
3E3
  5
3E3
331
97E
  5
97F
331
7D3
  5
7D3
331
51F
  5
51F
331
4E0
  5
4E0
331
3EB
  5
3EB
331
375
  5
375
331
2FF
  5
2FF
331
2C0
  5
2C0
331
336
  5
336
331
3AC
  5
3AC
331
422
  5
422
331
4A9
  5
4A9
331
4E8
  5
4E8
331
42A
  5
42A
331
33E
  5
33E
331
3B4
  5
3B4
331
252
  5
252
331
25A
  5
25A
331
289
  5
289
331
2C8
  5
2C8
331
4B1
  5
4B1
331
4F0
  5
4F0
331
3F3
  5
3F3
331
37D
  5
37D
331
307
  5
307
331
262
  5
262
331
291
  5
291
331
2D0
  5
2D0
331
346
  5
346
331
3BC
  5
3BC
331
432
  5
432
331
4B9
  5
4B9
331
4F8
  5
4F8
331
3FB
  5
3FB
331
385
  5
385
331
2D8
  5
2D8
331
26A
  5
26A
331
299
  5
299
331
30F
  5
30F
331
34E
  5
34E
331
3C4
  5
3C4
331
43A
  5
43A
331
500
  5
500
331
4C1
  5
4C1
331
442
  5
442
331
3CC
  5
3CC
331
356
  5
356
331
2A1
  5
2A1
331
2E0
  5
2E0
331
317
  5
317
331
38D
  5
38D
331
403
  5
403
331
967
  5
967
331
4C9
  5
4C9
331
508
  5
508
331
40B
  5
40B
331
395
  5
395
331
31F
  5
31F
331
35E
  5
35E
331
3D4
  5
3D4
331
44A
  5
44A
331
96F
  5
96F
331
977
  5
978
331
272
  5
272
331
27A
  5
27A
331
2A9
  5
2A9
331
2E8
  5
2E8
331
4D1
  5
4D1
331
510
  5
510
331
413
  5
413
331
39D
  5
39D
331
327
  5
327
331
282
  5
282
331
2B1
  5
2B1
331
2F0
  5
2F0
331
366
  5
366
331
3DC
  5
3DC
331
5FE
  5
62A
331
4D9
  5
4D9
331
518
  5
518
331
41B
  5
41B
331
3A5
  5
3A5
331
32F
  5
32F
331
24B
  5
24B
331
2B9
  5
2B9
331
2F8
  5
2F8
331
36E
  5
36E
331
3E4
  5
3E4
331
97F
  5
980
331
520
  5
520
331
4E1
  5
4E1
331
4AA
  5
4AA
331
337
  5
337
331
2C1
  5
2C1
331
376
  5
376
331
3AD
  5
3AD
331
3EC
  5
3EC
331
423
  5
423
331
4E9
  5
4E9
331
42B
  5
42B
331
33F
  5
33F
331
3B5
  5
3B5
331
253
  5
253
331
300
  5
300
331
25B
  5
25B
331
28A
  5
28A
331
2C9
  5
2C9
331
4B2
  5
4B2
331
4F1
  5
4F1
331
3F4
  5
3F4
331
37E
  5
37E
331
308
  5
308
331
263
  5
263
331
292
  5
292
331
2D1
  5
2D1
331
347
  5
347
331
3BD
  5
3BD
331
433
  5
433
331
5D7
  5
5FB
331
4BA
  5
4BA
331
4F9
  5
4F9
331
3FC
  5
3FC
331
386
  5
386
331
310
  5
310
331
26B
  5
26B
331
29A
  5
29A
331
2D9
  5
2D9
331
34F
  5
34F
331
3C5
  5
3C5
331
43B
  5
43B
331
4C2
  5
4C2
331
501
  5
501
331
404
  5
404
331
38E
  5
38E
331
318
  5
318
331
2A2
  5
2A2
331
2E1
  5
2E1
331
357
  5
357
331
3CD
  5
3CD
331
443
  5
443
331
968
  5
968
331
62E
  5
52B
331
4CA
  5
4CA
331
509
  5
509
331
40C
  5
40C
331
396
  5
396
331
35F
  5
35F
331
3D5
  5
3D5
331
44B
  5
44B
331
970
  5
970
331
273
  5
273
331
320
  5
320
331
2AA
  5
2AA
331
2E9
  5
2E9
331
27B
  5
27B
331
4D2
  5
4D2
331
511
  5
511
331
414
  5
414
331
39E
  5
39E
331
328
  5
328
331
2B2
  5
2B2
331
2F1
  5
2F1
331
367
  5
367
331
3DD
  5
3DD
331
453
  5
453
331
244
  5
244
331
283
  5
283
331
978
  5
979
331
5B0
  5
5CA
331
4DA
  5
4DA
331
519
  5
519
331
41C
  5
41C
331
3A6
  5
3A6
331
36F
  5
36F
331
2F9
  5
2F9
331
2BA
  5
2BA
331
330
  5
330
331
3E5
  5
3E5
331
24C
  5
24C
331
4E2
  5
4E2
331
521
  5
521
331
3ED
  5
3ED
331
377
  5
377
331
2C2
  5
2C2
331
338
  5
338
331
3AE
  5
3AE
331
424
  5
424
331
4AB
  5
4AB
331
988
  5
989
331
4EA
  5
4EA
331
3B6
  5
3B6
331
42C
  5
42C
331
254
  5
254
331
301
  5
301
331
28B
  5
28B
331
2CA
  5
2CA
331
340
  5
340
331
25C
  5
25C
331
4B3
  5
4B3
331
4F2
  5
4F2
331
3F5
  5
3F5
331
37F
  5
37F
331
309
  5
309
331
293
  5
293
331
2D2
  5
2D2
331
348
  5
348
331
3BE
  5
3BE
331
434
  5
434
331
264
  5
264
331
4BB
  5
4BB
331
4FA
  5
4FA
331
3FD
  5
3FD
331
387
  5
387
331
311
  5
311
331
29B
  5
29B
331
2DA
  5
2DA
331
350
  5
350
331
3C6
  5
3C6
331
43C
  5
43C
331
26C
  5
26C
331
961
  5
961
331
4C3
  5
4C3
331
502
  5
502
331
405
  5
405
331
38F
  5
38F
331
319
  5
319
331
2A3
  5
2A3
331
2E2
  5
2E2
331
358
  5
358
331
3CE
  5
3CE
331
444
  5
444
331
969
  5
969
331
4CB
  5
4CB
331
50A
  5
50A
331
40D
  5
40D
331
397
  5
397
331
3D6
  5
3D6
331
44C
  5
44C
331
971
  5
971
331
274
  5
274
331
321
  5
321
331
2AB
  5
2AB
331
2EA
  5
2EA
331
360
  5
360
331
27C
  5
27C
331
4D3
  5
4D3
331
512
  5
512
331
415
  5
415
331
39F
  5
39F
331
329
  5
329
331
2B3
  5
2B3
331
2F2
  5
2F2
331
368
  5
368
331
3DE
  5
3DE
331
454
  5
454
331
245
  5
245
331
284
  5
284
331
979
  5
97A
331
4DB
  5
4DB
331
51A
  5
51A
331
41D
  5
41D
331
3A7
  5
3A7
331
331
  5
331
331
2BB
  5
2BB
331
2FA
  5
2FA
331
370
  5
370
331
3E6
  5
3E6
331
24D
  5
24D
331
981
  5
982
331
522
  5
522
331
4E3
  5
4E3
331
425
  5
425
331
339
  5
339
331
2C3
  5
2C3
331
3AF
  5
3AF
331
3EE
  5
3EE
331
4AC
  5
4AC
331
989
  5
98A
331
4EB
  5
4EB
331
42D
  5
42D
331
3B7
  5
3B7
331
255
  5
255
331
378
  5
378
331
302
  5
302
331
28C
  5
28C
331
2CB
  5
2CB
331
341
  5
341
331
25D
  5
25D
331
4B4
  5
4B4
331
4F3
  5
4F3
331
3F6
  5
3F6
331
380
  5
380
331
30A
  5
30A
331
294
  5
294
331
2D3
  5
2D3
331
349
  5
349
331
3BF
  5
3BF
331
435
  5
435
331
265
  5
265
331
4BC
  5
4BC
331
4FB
  5
4FB
331
3FE
  5
3FE
331
388
  5
388
331
312
  5
312
331
29C
  5
29C
331
2DB
  5
2DB
331
351
  5
351
331
3C7
  5
3C7
331
43D
  5
43D
331
26D
  5
26D
331
962
  5
962
331
4C4
  5
4C4
331
503
  5
503
331
406
  5
406
331
390
  5
390
331
31A
  5
31A
331
2A4
  5
2A4
331
2E3
  5
2E3
331
359
  5
359
331
3CF
  5
3CF
331
445
  5
445
331
96A
  5
96A
331
4CC
  5
4CC
331
50B
  5
50B
331
40E
  5
40E
331
3D7
  5
3D7
331
44D
  5
44D
331
972
  5
972
331
275
  5
275
331
398
  5
398
331
322
  5
322
331
2AC
  5
2AC
331
2EB
  5
2EB
331
361
  5
361
331
27D
  5
27D
331
416
  5
416
331
3A0
  5
3A0
331
32A
  5
32A
331
2B4
  5
2B4
331
2F3
  5
2F3
331
369
  5
369
331
3DF
  5
3DF
331
455
  5
455
331
246
  5
246
331
285
  5
285
331
4D4
  5
4D4
331
513
  5
513
331
97A
  5
97B
331
41E
  5
41E
331
3E7
  5
3E7
331
2FB
  5
2FB
331
2BC
  5
2BC
331
332
  5
332
331
371
  5
371
331
3A8
  5
3A8
331
24E
  5
24E
331
4DC
  5
4DC
331
51B
  5
51B
331
982
  5
983
331
8D5
  5
8D5
331
3EF
  5
3EF
331
2C4
  5
2C4
331
33A
  5
33A
331
3B0
  5
3B0
331
426
  5
426
331
4AD
  5
4AD
331
4E4
  5
4E4
331
523
  5
523
331
98A
  5
98B
331
5CA
  5
5E4
331
42E
  5
42E
331
4EC
  5
4EC
331
256
  5
256
331
379
  5
379
331
303
  5
303
331
28D
  5
28D
331
2CC
  5
2CC
331
342
  5
342
331
3B8
  5
3B8
331
25E
  5
25E
331
3F7
  5
3F7
331
381
  5
381
331
30B
  5
30B
331
295
  5
295
331
2D4
  5
2D4
331
34A
  5
34A
331
3C0
  5
3C0
331
436
  5
436
331
266
  5
266
331
4B5
  5
4B5
331
4F4
  5
4F4
331
3FF
  5
3FF
331
389
  5
389
331
313
  5
313
331
29D
  5
29D
331
2DC
  5
2DC
331
352
  5
352
331
3C8
  5
3C8
331
43E
  5
43E
331
26E
  5
26E
331
4BD
  5
4BD
331
4FC
  5
4FC
331
963
  5
963
331
407
  5
407
331
391
  5
391
331
31B
  5
31B
331
2A5
  5
2A5
331
2E4
  5
2E4
331
35A
  5
35A
331
3D0
  5
3D0
331
446
  5
446
331
4C5
  5
4C5
331
504
  5
504
331
96B
  5
96B
331
5A3
  5
5BD
331
40F
  5
40F
331
44E
  5
44E
331
4CD
  5
4CD
331
50C
  5
50C
331
276
  5
276
331
399
  5
399
331
323
  5
323
331
2AD
  5
2AD
331
2EC
  5
2EC
331
362
  5
362
331
3D8
  5
3D8
331
27E
  5
27E
331
417
  5
417
331
3A1
  5
3A1
331
32B
  5
32B
331
2B5
  5
2B5
331
2F4
  5
2F4
331
36A
  5
36A
331
3E0
  5
3E0
331
456
  5
456
331
286
  5
286
331
247
  5
247
331
4D5
  5
4D5
331
514
  5
514
331
97B
  5
97C
331
41F
  5
41F
331
333
  5
333
331
2BD
  5
2BD
331
2FC
  5
2FC
331
372
  5
372
331
3A9
  5
3A9
331
3E8
  5
3E8
331
4A6
  5
4A6
331
24F
  5
24F
331
4DD
  5
4DD
331
51C
  5
51C
331
983
  5
984
331
427
  5
427
331
33B
  5
33B
331
2C5
  5
2C5
331
3B1
  5
3B1
331
4AE
  5
4AE
331
4E5
  5
4E5
331
98B
  5
98C
331
42F
  5
42F
331
4ED
  5
4ED
331
257
  5
257
331
3F0
  5
3F0
331
37A
  5
37A
331
304
  5
304
331
28E
  5
28E
331
2CD
  5
2CD
331
343
  5
343
331
3B9
  5
3B9
331
25F
  5
25F
331
3F8
  5
3F8
331
382
  5
382
331
30C
  5
30C
331
296
  5
296
331
2D5
  5
2D5
331
34B
  5
34B
331
3C1
  5
3C1
331
437
  5
437
331
267
  5
267
331
4B6
  5
4B6
331
4F5
  5
4F5
331
400
  5
400
331
38A
  5
38A
331
314
  5
314
331
29E
  5
29E
331
2DD
  5
2DD
331
353
  5
353
331
3C9
  5
3C9
331
43F
  5
43F
331
26F
  5
26F
331
4BE
  5
4BE
331
4FD
  5
4FD
331
964
  5
964
331
62A
  5
62D
331
408
  5
408
331
392
  5
392
331
31C
  5
31C
331
2A6
  5
2A6
331
2E5
  5
2E5
331
35B
  5
35B
331
3D1
  5
3D1
331
447
  5
447
331
4C6
  5
4C6
331
505
  5
505
331
96C
  5
96C
331
44F
  5
44F
331
4CE
  5
4CE
331
50D
  5
50D
331
974
  5
975
331
277
  5
277
331
410
  5
410
331
39A
  5
39A
331
324
  5
324
331
2AE
  5
2AE
331
2ED
  5
2ED
331
363
  5
363
331
3D9
  5
3D9
331
27F
  5
27F
331
5FB
  5
5FD
331
418
  5
418
331
3A2
  5
3A2
331
32C
  5
32C
331
2B6
  5
2B6
331
2F5
  5
2F5
331
36B
  5
36B
331
3E1
  5
3E1
331
457
  5
457
331
248
  5
248
331
287
  5
287
331
4D6
  5
4D6
331
515
  5
515
331
97C
  5
97D
331
7D1
  5
7D1
331
4A7
  5
4A7
331
3E9
  5
3E9
331
2FD
  5
2FD
331
2BE
  5
2BE
331
334
  5
334
331
373
  5
373
331
3AA
  5
3AA
331
420
  5
420
331
4DE
  5
4DE
331
51D
  5
51D
331
984
  5
985
331
428
  5
428
331
2C6
  5
2C6
331
33C
  5
33C
331
3B2
  5
3B2
331
4AF
  5
4AF
331
4E6
  5
4E6
331
525
  5
525
331
98C
  5
98D
331
4EE
  5
4EE
331
250
  5
250
331
258
  5
258
331
3F1
  5
3F1
331
37B
  5
37B
331
305
  5
305
331
28F
  5
28F
331
2CE
  5
2CE
331
344
  5
344
331
3BA
  5
3BA
331
430
  5
430
331
260
  5
260
331
3F9
  5
3F9
331
383
  5
383
331
30D
  5
30D
331
297
  5
297
331
2D6
  5
2D6
331
34C
  5
34C
331
3C2
  5
3C2
331
438
  5
438
331
268
  5
268
331
4B7
  5
4B7
331
4F6
  5
4F6
331
401
  5
401
331
38B
  5
38B
331
315
  5
315
331
29F
  5
29F
331
2DE
  5
2DE
331
354
  5
354
331
3CA
  5
3CA
331
440
  5
440
331
4BF
  5
4BF
331
4FE
  5
4FE
331
965
  5
965
331
5E4
  5
5FC
331
62B
  5
62C
331
409
  5
409
331
393
  5
393
331
31D
  5
31D
331
2A7
  5
2A7
331
2E6
  5
2E6
331
35C
  5
35C
331
3D2
  5
3D2
331
448
  5
448
331
4C7
  5
4C7
331
506
  5
506
331
96D
  5
96D
331
4CF
  5
4CF
331
50E
  5
50E
331
975
  5
976
331
270
  5
270
331
278
  5
278
331
411
  5
411
331
39B
  5
39B
331
325
  5
325
331
2AF
  5
2AF
331
2EE
  5
2EE
331
364
  5
364
331
3DA
  5
3DA
331
450
  5
450
331
280
  5
280
331
5FC
  5
5FE
331
419
  5
419
331
3A3
  5
3A3
331
32D
  5
32D
331
2B7
  5
2B7
331
2F6
  5
2F6
331
36C
  5
36C
331
3E2
  5
3E2
331
249
  5
249
331
4D7
  5
4D7
331
516
  5
516
331
97D
  5
97E
331
7D2
  5
7D2
331
4A8
  5
4A8
331
335
  5
335
331
2BF
  5
2BF
331
2FE
  5
2FE
331
374
  5
374
331
3AB
  5
3AB
331
3EA
  5
3EA
331
421
  5
421
331
4DF
  5
4DF
331
51E
  5
51E
331
985
  5
986
331
5BD
  5
5D7
331
526
  5
526
331
429
  5
429
331
33D
  5
33D
331
2C7
  5
2C7
331
3B3
  5
3B3
331
4E7
  5
4E7
331
4EF
  5
4EF
331
251
  5
251
331
288
  5
288
331
259
  5
259
331
3F2
  5
3F2
331
37C
  5
37C
331
306
  5
306
331
290
  5
290
331
2CF
  5
2CF
331
345
  5
345
331
3BB
  5
3BB
331
431
  5
431
331
261
  5
261
331
4B0
  5
4B0
331
3FA
  5
3FA
331
384
  5
384
331
30E
  5
30E
331
298
  5
298
331
2D7
  5
2D7
331
34D
  5
34D
331
3C3
  5
3C3
331
439
  5
439
331
269
  5
269
331
4B8
  5
4B8
331
4F7
  5
4F7
331
402
  5
402
331
38C
  5
38C
331
316
  5
316
331
2A0
  5
2A0
331
2DF
  5
2DF
331
355
  5
355
331
3CB
  5
3CB
331
441
  5
441
331
4C0
  5
4C0
331
4FF
  5
4FF
331
966
  5
966
331
62C
  5
62B
331
596
  5
5B0
331
40A
  5
40A
331
394
  5
394
331
31E
  5
31E
331
2E7
  5
2E7
331
35D
  5
35D
331
3D3
  5
3D3
331
449
  5
449
331
4C8
  5
4C8
331
507
  5
507
331
96E
  5
96E
331
50F
  5
50F
331
976
  5
977
  0
SORTENTSTABLE
  5
95D
102
{ACAD_REACTORS
330
95C
102
}
330
95C
100
AcDbSortentsTable
330
92D
  0
ACDBDETAILVIEWSTYLE
  5
8C6
102
{ACAD_XDICTIONARY
360
B22
102
}
102
{ACAD_REACTORS
330
8C5
102
}
330
8C5
100
AcDbModelDocViewStyle
 70
     0
  3
Metric50
290
     0
100
AcDbDetailViewStyle
 70
     0
 71
     0
 90
        3
 71
     1
340
11
 62
   256
 40
5.0
340
0
 62
   256
 40
5.0
300

 40
0.0
280
     1
 71
     2
340
16
 90
       25
 62
   256
 71
     3
340
11
 62
   256
 40
5.0
 90
        0
 40
15.0
 90
        1
300
%<\AcVar ViewDetailId>% (%<\AcVar ViewScale \f "%sn">%)
 71
     4
340
16
 90
       25
 62
   256
340
16
 90
       25
 62
   256
280
     0
  0
LAYOUT
  5
1E
102
{ACAD_REACTORS
330
1A
102
}
330
1A
100
AcDbPlotSettings
  1

  2

  4

  6

 40
0.0
 41
0.0
 42
0.0
 43
0.0
 44
0.0
 45
0.0
 46
0.0
 47
0.0
 48
0.0
 49
0.0
140
0.0
141
0.0
142
1.0
143
1.0
 70
   688
 72
     0
 73
     0
 74
     5
  7
monochrome.ctb
 75
    16
147
1.0
 76
     0
 77
     2
 78
   300
148
0.0
149
0.0
100
AcDbLayout
  1
Layout1
 70
     1
 71
     1
 10
-148.0
 20
-104.5
 11
149.0
 21
243.2062403238793
 12
0.0
 22
0.0
 32
0.0
 14
1.000000000000000E+20
 24
1.000000000000000E+20
 34
1.000000000000000E+20
 15
-1.000000000000000E+20
 25
-1.000000000000000E+20
 35
-1.000000000000000E+20
146
0.0
 13
0.0
 23
0.0
 33
0.0
 16
1.0
 26
0.0
 36
0.0
 17
0.0
 27
1.0
 37
0.0
 76
     0
330
1B
  0
LAYOUT
  5
26
102
{ACAD_REACTORS
330
1A
102
}
330
1A
100
AcDbPlotSettings
  1

  2

  4

  6

 40
0.0
 41
0.0
 42
0.0
 43
0.0
 44
0.0
 45
0.0
 46
0.0
 47
0.0
 48
0.0
 49
0.0
140
0.0
141
0.0
142
1.0
143
1.0
 70
   688
 72
     0
 73
     0
 74
     5
  7
monochrome.ctb
 75
    16
147
1.0
 76
     0
 77
     2
 78
   300
148
0.0
149
0.0
100
AcDbLayout
  1
Layout2
 70
     1
 71
     2
 10
0.0
 20
0.0
 11
0.0
 21
0.0
 12
0.0
 22
0.0
 32
0.0
 14
0.0
 24
0.0
 34
0.0
 15
0.0
 25
0.0
 35
0.0
146
0.0
 13
0.0
 23
0.0
 33
0.0
 16
1.0
 26
0.0
 36
0.0
 17
0.0
 27
1.0
 37
0.0
 76
     0
330
23
  0
LAYOUT
  5
22
102
{ACAD_REACTORS
330
1A
102
}
330
1A
100
AcDbPlotSettings
  1

  2
Adobe PDF
  4
A4
  6

 40
3.174999952316283
 41
3.174999952316283
 42
3.175003051757812
 43
3.17498779296875
 44
209.9733276367186
 45
297.0318298339844
 46
7.054071890449902
 47
7.073861730090527
 48
0.0
 49
0.0
140
0.0
141
0.0
142
1.0
143
1.0
 70
 11956
 72
     1
 73
     1
 74
     1
  7
monochrome.ctb
 75
    16
147
1.0
 76
     0
 77
     2
 78
   300
148
138.0163109423782
149
94.50959923785648
100
AcDbLayout
  1
Model
 70
     1
 71
     0
 10
-148.0
 20
-104.5
 11
149.0
 21
243.2062403238793
 12
0.0
 22
0.0
 32
0.0
 14
-148.0
 24
-104.5
 34
0.0
 15
149.0
 25
243.2062403238793
 35
0.0
146
0.0
 13
0.0
 23
0.0
 33
0.0
 16
1.0
 26
0.0
 36
0.0
 17
0.0
 27
1.0
 37
0.0
 76
     0
330
1F
331
87C
1001
ACAD_PSEXT
1000
Adobe PDF
1000
Adobe PDF Converter
1000
My Documents
1000

1070
     0
  0
MATERIAL
  5
886
102
{ACAD_XDICTIONARY
360
887
102
}
102
{ACAD_REACTORS
330
605
102
}
330
605
100
AcDbMaterial
  1
ByBlock
 72
     0
 43
0.0008202099737533
 43
0.0
 43
0.0
 43
0.0
 43
0.0
 43
0.0008202099737533
 43
0.0
 43
0.0
 43
0.0
 43
0.0
 43
1.0
 43
0.0
 43
0.0
 43
0.0
 43
0.0
 43
1.0
 77
     0
 47
0.0008202099737533
 47
0.0
 47
0.0
 47
0.0
 47
0.0
 47
0.0008202099737533
 47
0.0
 47
0.0
 47
0.0
 47
0.0
 47
1.0
 47
0.0
 47
0.0
 47
0.0
 47
0.0
 47
1.0
171
     0
 49
0.0008202099737533
 49
0.0
 49
0.0
 49
0.0
 49
0.0
 49
0.0008202099737533
 49
0.0
 49
0.0
 49
0.0
 49
0.0
 49
1.0
 49
0.0
 49
0.0
 49
0.0
 49
0.0
 49
1.0
175
     0
142
0.0008202099737533
142
0.0
142
0.0
142
0.0
142
0.0
142
0.0008202099737533
142
0.0
142
0.0
142
0.0
142
0.0
142
1.0
142
0.0
142
0.0
142
0.0
142
0.0
142
1.0
179
     0
144
0.0008202099737533
144
0.0
144
0.0
144
0.0
144
0.0
144
0.0008202099737533
144
0.0
144
0.0
144
0.0
144
0.0
144
1.0
144
0.0
144
0.0
144
0.0
144
0.0
144
1.0
147
0.0008202099737533
147
0.0
147
0.0
147
0.0
147
0.0
147
0.0008202099737533
147
0.0
147
0.0
147
0.0
147
0.0
147
1.0
147
0.0
147
0.0
147
0.0
147
0.0
147
1.0
  0
MATERIAL
  5
87E
102
{ACAD_XDICTIONARY
360
87F
102
}
102
{ACAD_REACTORS
330
605
102
}
330
605
100
AcDbMaterial
  1
ByLayer
 72
     0
 43
0.0008202099737533
 43
0.0
 43
0.0
 43
0.0
 43
0.0
 43
0.0008202099737533
 43
0.0
 43
0.0
 43
0.0
 43
0.0
 43
1.0
 43
0.0
 43
0.0
 43
0.0
 43
0.0
 43
1.0
 77
     0
 47
0.0008202099737533
 47
0.0
 47
0.0
 47
0.0
 47
0.0
 47
0.0008202099737533
 47
0.0
 47
0.0
 47
0.0
 47
0.0
 47
1.0
 47
0.0
 47
0.0
 47
0.0
 47
0.0
 47
1.0
171
     0
 49
0.0008202099737533
 49
0.0
 49
0.0
 49
0.0
 49
0.0
 49
0.0008202099737533
 49
0.0
 49
0.0
 49
0.0
 49
0.0
 49
1.0
 49
0.0
 49
0.0
 49
0.0
 49
0.0
 49
1.0
175
     0
142
0.0008202099737533
142
0.0
142
0.0
142
0.0
142
0.0
142
0.0008202099737533
142
0.0
142
0.0
142
0.0
142
0.0
142
1.0
142
0.0
142
0.0
142
0.0
142
0.0
142
1.0
179
     0
144
0.0008202099737533
144
0.0
144
0.0
144
0.0
144
0.0
144
0.0008202099737533
144
0.0
144
0.0
144
0.0
144
0.0
144
1.0
144
0.0
144
0.0
144
0.0
144
0.0
144
1.0
147
0.0008202099737533
147
0.0
147
0.0
147
0.0
147
0.0
147
0.0008202099737533
147
0.0
147
0.0
147
0.0
147
0.0
147
1.0
147
0.0
147
0.0
147
0.0
147
0.0
147
1.0
  0
MATERIAL
  5
88E
102
{ACAD_XDICTIONARY
360
88F
102
}
102
{ACAD_REACTORS
330
605
102
}
330
605
100
AcDbMaterial
  1
Global
 72
     0
 43
0.0008202099737533
 43
0.0
 43
0.0
 43
0.0
 43
0.0
 43
0.0008202099737533
 43
0.0
 43
0.0
 43
0.0
 43
0.0
 43
1.0
 43
0.0
 43
0.0
 43
0.0
 43
0.0
 43
1.0
 77
     0
 47
0.0008202099737533
 47
0.0
 47
0.0
 47
0.0
 47
0.0
 47
0.0008202099737533
 47
0.0
 47
0.0
 47
0.0
 47
0.0
 47
1.0
 47
0.0
 47
0.0
 47
0.0
 47
0.0
 47
1.0
171
     0
 49
0.0008202099737533
 49
0.0
 49
0.0
 49
0.0
 49
0.0
 49
0.0008202099737533
 49
0.0
 49
0.0
 49
0.0
 49
0.0
 49
1.0
 49
0.0
 49
0.0
 49
0.0
 49
0.0
 49
1.0
175
     0
142
0.0008202099737533
142
0.0
142
0.0
142
0.0
142
0.0
142
0.0008202099737533
142
0.0
142
0.0
142
0.0
142
0.0
142
1.0
142
0.0
142
0.0
142
0.0
142
0.0
142
1.0
179
     0
144
0.0008202099737533
144
0.0
144
0.0
144
0.0
144
0.0
144
0.0008202099737533
144
0.0
144
0.0
144
0.0
144
0.0
144
1.0
144
0.0
144
0.0
144
0.0
144
0.0
144
1.0
147
0.0008202099737533
147
0.0
147
0.0
147
0.0
147
0.0
147
0.0008202099737533
147
0.0
147
0.0
147
0.0
147
0.0
147
1.0
147
0.0
147
0.0
147
0.0
147
0.0
147
1.0
  0
MLEADERSTYLE
  5
8C2
102
{ACAD_XDICTIONARY
360
B1E
102
}
102
{ACAD_REACTORS
330
8C1
102
}
330
8C1
100
AcDbMLeaderStyle
170
     2
171
     1
172
     0
 90
        2
 40
0.0
 41
0.0
173
     1
 91
-1056964608
340
14
 92
       -2
290
     1
 42
2.0
291
     1
 43
0.36
  3
Standard
 44
4.0
300

342
11
174
     1
178
     6
175
     1
176
     0
 93
-1056964608
 45
4.0
292
     0
297
     0
 46
4.0
 94
-1056964608
 47
1.0
 49
1.0
140
1.0
293
     1
141
0.0
294
     1
177
     0
142
1.0
295
     0
296
     0
143
0.125
1001
ACAD_MLEADERVER
1070
     2
  0
MLINESTYLE
  5
18
102
{ACAD_REACTORS
330
17
102
}
330
17
100
AcDbMlineStyle
  2
STANDARD
 70
     0
  3

 62
   256
 51
90.0
 52
90.0
 71
     2
 49
0.5
 62
   256
  6
BYLAYER
 49
-0.5
 62
   256
  6
BYLAYER
  0
PLOTSETTINGS
  5
ACF
102
{ACAD_REACTORS
330
19
102
}
330
19
100
AcDbPlotSettings
  1
セットアップ1
  2
DWG To PDF.pc3
  4
ISO_expand_A4_(297.00_x_210.00_MM)
  6

 40
5.793749809265136
 41
10.79374980926513
 42
5.79376220703125
 43
10.79374694824219
 44
297.0
 45
210.0
 46
5.249628829452802
 47
0.0
 48
-138.0
 49
-94.50000000000001
140
138.5
141
95.0
142
1.0
143
1.005771892728943
 70
 11956
 72
     1
 73
     0
 74
     4
  7
monochrome.ctb
 75
     0
147
0.9942612308310959
 76
     0
 77
     2
 78
   300
148
138.0
149
94.50000000000001
1001
ACAD_PSEXT
1000
DWG To PDF.pc3
1000
DWG To PDF
1000
ファイル
1000

1070
     0
  0
ACDBPLACEHOLDER
  5
F
102
{ACAD_REACTORS
330
E
102
}
330
E
  0
SCALE
  5
8B0
102
{ACAD_REACTORS
330
8AF
102
}
330
8AF
100
AcDbScale
 70
     0
300
1:1
140
1.0
141
1.0
290
     1
  0
SCALE
  5
8B1
102
{ACAD_REACTORS
330
8AF
102
}
330
8AF
100
AcDbScale
 70
     0
300
1:2
140
1.0
141
2.0
290
     0
  0
SCALE
  5
8B2
102
{ACAD_REACTORS
330
8AF
102
}
330
8AF
100
AcDbScale
 70
     0
300
1:4
140
1.0
141
4.0
290
     0
  0
SCALE
  5
8B3
102
{ACAD_REACTORS
330
8AF
102
}
330
8AF
100
AcDbScale
 70
     0
300
1:5
140
1.0
141
5.0
290
     0
  0
SCALE
  5
8B4
102
{ACAD_REACTORS
330
8AF
102
}
330
8AF
100
AcDbScale
 70
     0
300
1:8
140
1.0
141
8.0
290
     0
  0
SCALE
  5
8B5
102
{ACAD_REACTORS
330
8AF
102
}
330
8AF
100
AcDbScale
 70
     0
300
1:10
140
1.0
141
10.0
290
     0
  0
SCALE
  5
8B6
102
{ACAD_REACTORS
330
8AF
102
}
330
8AF
100
AcDbScale
 70
     0
300
1:16
140
1.0
141
16.0
290
     0
  0
SCALE
  5
8B7
102
{ACAD_REACTORS
330
8AF
102
}
330
8AF
100
AcDbScale
 70
     0
300
1:20
140
1.0
141
20.0
290
     0
  0
SCALE
  5
8B8
102
{ACAD_REACTORS
330
8AF
102
}
330
8AF
100
AcDbScale
 70
     0
300
1:30
140
1.0
141
30.0
290
     0
  0
SCALE
  5
8B9
102
{ACAD_REACTORS
330
8AF
102
}
330
8AF
100
AcDbScale
 70
     0
300
1:40
140
1.0
141
40.0
290
     0
  0
SCALE
  5
8BA
102
{ACAD_REACTORS
330
8AF
102
}
330
8AF
100
AcDbScale
 70
     0
300
1:50
140
1.0
141
50.0
290
     0
  0
SCALE
  5
8BB
102
{ACAD_REACTORS
330
8AF
102
}
330
8AF
100
AcDbScale
 70
     0
300
1:100
140
1.0
141
100.0
290
     0
  0
SCALE
  5
8BC
102
{ACAD_REACTORS
330
8AF
102
}
330
8AF
100
AcDbScale
 70
     0
300
2:1
140
2.0
141
1.0
290
     0
  0
SCALE
  5
8BD
102
{ACAD_REACTORS
330
8AF
102
}
330
8AF
100
AcDbScale
 70
     0
300
4:1
140
4.0
141
1.0
290
     0
  0
SCALE
  5
8BE
102
{ACAD_REACTORS
330
8AF
102
}
330
8AF
100
AcDbScale
 70
     0
300
8:1
140
8.0
141
1.0
290
     0
  0
SCALE
  5
8BF
102
{ACAD_REACTORS
330
8AF
102
}
330
8AF
100
AcDbScale
 70
     0
300
10:1
140
10.0
141
1.0
290
     0
  0
SCALE
  5
8C0
102
{ACAD_REACTORS
330
8AF
102
}
330
8AF
100
AcDbScale
 70
     0
300
100:1
140
100.0
141
1.0
290
     0
  0
ACDBSECTIONVIEWSTYLE
  5
8C4
102
{ACAD_XDICTIONARY
360
B20
102
}
102
{ACAD_REACTORS
330
8C3
102
}
330
8C3
100
AcDbModelDocViewStyle
 70
     0
  3
Metric50
290
     0
100
AcDbSectionViewStyle
 70
     0
 71
     0
 90
      102
 71
     1
340
11
 62
   256
 40
5.0
340
0
340
0
 62
   256
 40
5.0
300
I, O, Q, S, X, Z
 40
10.0
 90
        0
 40
2.5
 90
        0
 71
     2
340
16
 90
       25
 62
   256
340
16
 90
       50
 62
   256
 40
5.0
 40
2.5
 40
5.0
 71
     3
340
11
 62
   256
 40
5.0
 90
        0
 40
15.0
 90
        1
300
%<\AcVar ViewSectionStartId>%-%<\AcVar ViewSectionEndId>% (%<\AcVar ViewScale \f "%sn">%)
 71
     4
 62
   256
 62
   257
300
ANSI31
 40
1.0
 90
        0
290
     0
290
     0
 90
        6
 40
0.0
 40
1.570796326794896
 40
0.2617993877991494
 40
1.308996938995747
 40
-0.2617993877991494
 40
1.832595714594046
  0
TABLESTYLE
  5
608
102
{ACAD_XDICTIONARY
360
AE6
102
}
102
{ACAD_REACTORS
330
607
102
}
330
607
100
AcDbTableStyle
  3
Standard
 70
     0
 71
     0
 40
1.5
 41
1.5
280
     0
281
     0
  7
Standard
140
4.5
170
     2
 62
     0
 63
     7
283
     0
274
    -2
284
     1
 64
     0
275
    -2
285
     1
 65
     0
276
    -2
286
     1
 66
     0
277
    -2
287
     1
 67
     0
278
    -2
288
     1
 68
     0
279
    -2
289
     1
 69
     0
  7
Standard
140
6.0
170
     5
 62
     0
 63
     7
283
     0
274
    -2
284
     1
 64
     0
275
    -2
285
     1
 65
     0
276
    -2
286
     1
 66
     0
277
    -2
287
     1
 67
     0
278
    -2
288
     1
 68
     0
279
    -2
289
     1
 69
     0
  7
Standard
140
4.5
170
     5
 62
     0
 63
     7
283
     0
274
    -2
284
     1
 64
     0
275
    -2
285
     1
 65
     0
276
    -2
286
     1
 66
     0
277
    -2
287
     1
 67
     0
278
    -2
288
     1
 68
     0
279
    -2
289
     1
 69
     0
  0
VISUALSTYLE
  5
89C
102
{ACAD_XDICTIONARY
360
AF7
102
}
102
{ACAD_REACTORS
330
896
102
}
330
896
100
AcDbVisualStyle
  2
2dWireframe
 70
     4
 71
     0
 72
     2
 73
     0
 90
        0
 40
-0.6
 41
-30.0
 62
     5
 63
     7
421
 16777215
 74
     1
 91
        4
 64
     7
 65
   257
 75
     1
175
     1
 42
1.0
 92
        0
 66
   257
 43
1.0
 76
     1
 77
     6
 78
     2
 67
     7
 79
     5
170
     0
171
     0
290
     0
174
     0
 93
        1
 44
0.0
173
     0
291
     0
 45
0.0
1001
ACAD
1000
AcDbSavedByObjectVersion
1070
     0
  0
VISUALSTYLE
  5
89B
102
{ACAD_XDICTIONARY
360
AF5
102
}
102
{ACAD_REACTORS
330
896
102
}
330
896
100
AcDbVisualStyle
  2
Basic
 70
     7
 71
     1
 72
     0
 73
     1
 90
        0
 40
-0.6
 41
-30.0
 62
     5
 63
     7
421
 16777215
 74
     0
 91
        4
 64
     7
 65
   257
 75
     1
175
     1
 42
1.0
 92
        8
 66
     7
 43
1.0
 76
     1
 77
     6
 78
     2
 67
     7
 79
     5
170
     0
171
     0
290
     0
174
     0
 93
        1
 44
0.0
173
     0
291
     1
 45
0.0
1001
ACAD
1000
AcDbSavedByObjectVersion
1070
     0
  0
VISUALSTYLE
  5
8A2
102
{ACAD_XDICTIONARY
360
B03
102
}
102
{ACAD_REACTORS
330
896
102
}
330
896
100
AcDbVisualStyle
  2
Brighten
 70
    12
 71
     2
 72
     2
 73
     0
 90
        0
 40
-0.6
 41
-30.0
 62
     5
 63
     7
421
 16777215
 74
     1
 91
        4
 64
     7
 65
   257
 75
     1
175
     1
 42
1.0
 92
        8
 66
     7
 43
1.0
 76
     1
 77
     6
 78
     2
 67
     7
 79
     5
170
     0
171
     0
290
     0
174
     0
 93
        1
 44
50.0
173
     0
291
     1
 45
0.0
1001
ACAD
1000
AcDbSavedByObjectVersion
1070
     0
  0
VISUALSTYLE
  5
8A6
102
{ACAD_XDICTIONARY
360
B0B
102
}
102
{ACAD_REACTORS
330
896
102
}
330
896
100
AcDbVisualStyle
  2
ColorChange
 70
    16
 71
     2
 72
     2
 73
     3
 90
        0
 40
-0.6
 41
-30.0
 62
     5
 63
     8
421
  8421504
 74
     1
 91
        4
 64
     7
 65
   257
 75
     1
175
     1
 42
1.0
 92
        8
 66
     8
424
  8421504
 43
1.0
 76
     1
 77
     6
 78
     2
 67
     7
 79
     5
170
     0
171
     0
290
     0
174
     0
 93
        1
 44
0.0
173
     0
291
     1
 45
0.0
1001
ACAD
1000
AcDbSavedByObjectVersion
1070
     0
  0
VISUALSTYLE
  5
89F
102
{ACAD_XDICTIONARY
360
AFD
102
}
102
{ACAD_REACTORS
330
896
102
}
330
896
100
AcDbVisualStyle
  2
Conceptual
 70
     9
 71
     3
 72
     2
 73
     0
 90
        0
 40
-0.6
 41
-30.0
 62
     5
 63
     7
421
 16777215
 74
     2
 91
        2
 64
     7
 65
   257
 75
     1
175
     1
 42
179.0
 92
        8
 66
     7
 43
1.0
 76
     1
 77
     6
 78
     2
 67
     7
 79
     3
170
     0
171
     0
290
     0
174
     0
 93
        1
 44
0.0
173
     0
291
     0
 45
0.0
1001
ACAD
1000
AcDbSavedByObjectVersion
1070
     0
  0
VISUALSTYLE
  5
8A1
102
{ACAD_XDICTIONARY
360
B01
102
}
102
{ACAD_REACTORS
330
896
102
}
330
896
100
AcDbVisualStyle
  2
Dim
 70
    11
 71
     2
 72
     2
 73
     0
 90
        0
 40
-0.6
 41
-30.0
 62
     5
 63
     7
421
 16777215
 74
     1
 91
        4
 64
     7
 65
   257
 75
     1
175
     1
 42
1.0
 92
        8
 66
     7
 43
1.0
 76
     1
 77
     6
 78
     2
 67
     7
 79
     5
170
     0
171
     0
290
     0
174
     0
 93
        1
 44
-50.0
173
     0
291
     1
 45
0.0
1001
ACAD
1000
AcDbSavedByObjectVersion
1070
     0
  0
VISUALSTYLE
  5
8AE
102
{ACAD_XDICTIONARY
360
B1B
102
}
102
{ACAD_REACTORS
330
896
102
}
330
896
100
AcDbVisualStyle
  2
EdgeColorOff
 70
    22
 71
     2
 72
     2
 73
     0
 90
        0
 40
-0.6
 41
-30.0
 62
     5
 63
     7
421
 16777215
 74
     1
 91
        4
 64
     7
 65
   257
 75
     1
175
     1
 42
1.0
 92
        8
 66
     7
 43
1.0
 76
     1
 77
     6
 78
     2
 67
     7
 79
     5
170
     0
171
     0
290
     0
174
     0
 93
        1
 44
0.0
173
     0
291
     1
 45
0.0
1001
ACAD
1000
AcDbSavedByObjectVersion
1070
     0
  0
VISUALSTYLE
  5
8A5
102
{ACAD_XDICTIONARY
360
B09
102
}
102
{ACAD_REACTORS
330
896
102
}
330
896
100
AcDbVisualStyle
  2
Facepattern
 70
    15
 71
     2
 72
     2
 73
     0
 90
        0
 40
-0.6
 41
-30.0
 62
     5
 63
     7
421
 16777215
 74
     1
 91
        4
 64
     7
 65
   257
 75
     1
175
     1
 42
1.0
 92
        8
 66
     7
 43
1.0
 76
     1
 77
     6
 78
     2
 67
     7
 79
     5
170
     0
171
     0
290
     0
174
     0
 93
        1
 44
0.0
173
     0
291
     1
 45
0.0
1001
ACAD
1000
AcDbSavedByObjectVersion
1070
     0
  0
VISUALSTYLE
  5
897
102
{ACAD_XDICTIONARY
360
AED
102
}
102
{ACAD_REACTORS
330
896
102
}
330
896
100
AcDbVisualStyle
  2
Flat
 70
     0
 71
     2
 72
     1
 73
     1
 90
        2
 40
-0.6
 41
30.0
 62
     5
 63
     7
421
 16777215
 74
     0
 91
        0
 64
     7
 65
   257
 75
     1
175
     1
 42
1.0
 92
        8
 66
     7
 43
1.0
 76
     1
 77
     6
 78
     2
 67
     7
 79
     5
170
     0
171
     0
290
     0
174
     0
 93
       13
 44
0.0
173
     0
291
     1
 45
0.0
1001
ACAD
1000
AcDbSavedByObjectVersion
1070
     0
  0
VISUALSTYLE
  5
898
102
{ACAD_XDICTIONARY
360
AEF
102
}
102
{ACAD_REACTORS
330
896
102
}
330
896
100
AcDbVisualStyle
  2
FlatWithEdges
 70
     1
 71
     2
 72
     1
 73
     1
 90
        2
 40
-0.6
 41
30.0
 62
     5
 63
     7
421
 16777215
 74
     1
 91
        0
 64
     7
 65
   257
 75
     1
175
     1
 42
1.0
 92
        0
 66
   257
 43
1.0
 76
     1
 77
     6
 78
     2
 67
     7
 79
     5
170
     0
171
     0
290
     0
174
     0
 93
       13
 44
0.0
173
     0
291
     1
 45
0.0
1001
ACAD
1000
AcDbSavedByObjectVersion
1070
     0
  0
VISUALSTYLE
  5
899
102
{ACAD_XDICTIONARY
360
AF1
102
}
102
{ACAD_REACTORS
330
896
102
}
330
896
100
AcDbVisualStyle
  2
Gouraud
 70
     2
 71
     2
 72
     2
 73
     1
 90
        2
 40
-0.6
 41
30.0
 62
     5
 63
     7
421
 16777215
 74
     0
 91
        0
 64
     7
 65
   257
 75
     1
175
     1
 42
1.0
 92
        0
 66
     7
 43
1.0
 76
     1
 77
     6
 78
     2
 67
     7
 79
     5
170
     0
171
     0
290
     0
174
     0
 93
       13
 44
0.0
173
     0
291
     1
 45
0.0
1001
ACAD
1000
AcDbSavedByObjectVersion
1070
     0
  0
VISUALSTYLE
  5
89A
102
{ACAD_XDICTIONARY
360
AF3
102
}
102
{ACAD_REACTORS
330
896
102
}
330
896
100
AcDbVisualStyle
  2
GouraudWithEdges
 70
     3
 71
     2
 72
     2
 73
     1
 90
        2
 40
-0.6
 41
30.0
 62
     5
 63
     7
421
 16777215
 74
     1
 91
        0
 64
     7
 65
   257
 75
     1
175
     1
 42
1.0
 92
        0
 66
   257
 43
1.0
 76
     1
 77
     6
 78
     2
 67
     7
 79
     5
170
     0
171
     0
290
     0
174
     0
 93
       13
 44
0.0
173
     0
291
     1
 45
0.0
1001
ACAD
1000
AcDbSavedByObjectVersion
1070
     0
  0
VISUALSTYLE
  5
89E
102
{ACAD_XDICTIONARY
360
AFB
102
}
102
{ACAD_REACTORS
330
896
102
}
330
896
100
AcDbVisualStyle
  2
Hidden
 70
     6
 71
     1
 72
     2
 73
     2
 90
        0
 40
-0.6
 41
-30.0
 62
     5
 63
     7
421
 16777215
 74
     2
 91
        2
 64
     7
 65
   257
 75
     2
175
     1
 42
40.0
 92
        0
 66
   257
 43
1.0
 76
     1
 77
     6
 78
     2
 67
     7
 79
     3
170
     0
171
     0
290
     0
174
     0
 93
        1
 44
0.0
173
     0
291
     0
 45
0.0
1001
ACAD
1000
AcDbSavedByObjectVersion
1070
     0
  0
VISUALSTYLE
  5
8AC
102
{ACAD_XDICTIONARY
360
B17
102
}
102
{ACAD_REACTORS
330
896
102
}
330
896
100
AcDbVisualStyle
  2
JitterOff
 70
    20
 71
     2
 72
     2
 73
     0
 90
        0
 40
-0.6
 41
-30.0
 62
     5
 63
     7
421
 16777215
 74
     1
 91
        4
 64
     7
 65
   257
 75
     1
175
     1
 42
1.0
 92
       10
 66
     7
 43
1.0
 76
     1
 77
     6
 78
     2
 67
     7
 79
     5
170
     0
171
     0
290
     0
174
     0
 93
        1
 44
0.0
173
     0
291
     1
 45
0.0
1001
ACAD
1000
AcDbSavedByObjectVersion
1070
     0
  0
VISUALSTYLE
  5
8A4
102
{ACAD_XDICTIONARY
360
B07
102
}
102
{ACAD_REACTORS
330
896
102
}
330
896
100
AcDbVisualStyle
  2
Linepattern
 70
    14
 71
     2
 72
     2
 73
     0
 90
        0
 40
-0.6
 41
-30.0
 62
     5
 63
     7
421
 16777215
 74
     1
 91
        4
 64
     7
 65
   257
 75
     7
175
     7
 42
1.0
 92
        8
 66
     7
 43
1.0
 76
     1
 77
     6
 78
     2
 67
     7
 79
     5
170
     0
171
     0
290
     0
174
     0
 93
        1
 44
0.0
173
     0
291
     1
 45
0.0
1001
ACAD
1000
AcDbSavedByObjectVersion
1070
     0
  0
VISUALSTYLE
  5
8AD
102
{ACAD_XDICTIONARY
360
B19
102
}
102
{ACAD_REACTORS
330
896
102
}
330
896
100
AcDbVisualStyle
  2
OverhangOff
 70
    21
 71
     2
 72
     2
 73
     0
 90
        0
 40
-0.6
 41
-30.0
 62
     5
 63
     7
421
 16777215
 74
     1
 91
        4
 64
     7
 65
   257
 75
     1
175
     1
 42
1.0
 92
        9
 66
     7
 43
1.0
 76
     1
 77
     6
 78
     2
 67
     7
 79
     5
170
     0
171
     0
290
     0
174
     0
 93
        1
 44
0.0
173
     0
291
     1
 45
0.0
1001
ACAD
1000
AcDbSavedByObjectVersion
1070
     0
  0
VISUALSTYLE
  5
8A0
102
{ACAD_XDICTIONARY
360
AFF
102
}
102
{ACAD_REACTORS
330
896
102
}
330
896
100
AcDbVisualStyle
  2
Realistic
 70
     8
 71
     2
 72
     3
 73
     0
 90
        2
 40
-0.6
 41
30.0
 62
     5
 63
     7
421
 16777215
 74
     0
 91
        0
 64
     7
 65
   257
 75
     1
175
     1
 42
1.0
 92
        8
 66
   257
 43
1.0
 76
     1
 77
     6
 78
     2
 67
     7
 79
     3
170
     0
171
     0
290
     0
174
     0
 93
       13
 44
0.0
173
     0
291
     0
 45
0.0
1001
ACAD
1000
AcDbSavedByObjectVersion
1070
     0
  0
VISUALSTYLE
  5
8AB
102
{ACAD_XDICTIONARY
360
B15
102
}
102
{ACAD_REACTORS
330
896
102
}
330
896
100
AcDbVisualStyle
  2
Shaded
 70
    27
 71
     2
 72
     2
 73
     1
 90
        2
 40
-0.6
 41
30.0
 62
     5
 63
     7
421
 16777215
 74
     0
 91
        4
 64
     7
 65
   257
 75
     1
175
     1
 42
1.0
 92
        8
 66
   257
 43
1.0
 76
     1
 77
     6
 78
     2
 67
     8
425
  7895160
 79
     3
170
     0
171
     0
290
     0
174
     0
 93
        5
 44
0.0
173
     0
291
     0
 45
0.0
1001
ACAD
1000
AcDbSavedByObjectVersion
1070
     0
  0
VISUALSTYLE
  5
8AA
102
{ACAD_XDICTIONARY
360
B13
102
}
102
{ACAD_REACTORS
330
896
102
}
330
896
100
AcDbVisualStyle
  2
Shaded with edges
 70
    26
 71
     2
 72
     2
 73
     1
 90
        2
 40
-0.6
 41
30.0
 62
     5
 63
     7
421
 16777215
 74
     1
 91
       10
 64
     7
 65
   257
 75
     2
175
     1
 42
1.0
 92
        8
 66
   257
 43
1.0
 76
     1
 77
     6
 78
     2
 67
     7
 79
     3
170
     0
171
     0
290
     0
174
     0
 93
        5
 44
0.0
173
     0
291
     0
 45
0.0
1001
ACAD
1000
AcDbSavedByObjectVersion
1070
     0
  0
VISUALSTYLE
  5
8A7
102
{ACAD_XDICTIONARY
360
B0D
102
}
102
{ACAD_REACTORS
330
896
102
}
330
896
100
AcDbVisualStyle
  2
Shades of Gray
 70
    23
 71
     2
 72
     2
 73
     3
 90
        0
 40
-0.6
 41
-30.0
 62
     5
 63
     7
421
 16777215
 74
     2
 91
        2
 64
     7
 65
     7
 75
     1
175
     1
 42
40.0
 92
        8
 66
     7
 43
1.0
 76
     1
 77
     6
 78
     2
 67
     7
 79
     3
170
     0
171
     0
290
     0
174
     0
 93
        1
 44
0.0
173
     0
291
     0
 45
0.0
1001
ACAD
1000
AcDbSavedByObjectVersion
1070
     0
  0
VISUALSTYLE
  5
8A8
102
{ACAD_XDICTIONARY
360
B0F
102
}
102
{ACAD_REACTORS
330
896
102
}
330
896
100
AcDbVisualStyle
  2
Sketchy
 70
    24
 71
     1
 72
     2
 73
     2
 90
        0
 40
-0.6
 41
-30.0
 62
     5
 63
     7
421
 16777215
 74
     2
 91
        2
 64
     7
 65
     7
 75
     1
175
     1
 42
40.0
 92
       11
 66
     7
 43
1.0
 76
     1
 77
     6
 78
     2
 67
     7
 79
     6
170
     0
171
     0
290
     0
174
     0
 93
        1
 44
0.0
173
     0
291
     0
 45
0.0
1001
ACAD
1000
AcDbSavedByObjectVersion
1070
     0
  0
VISUALSTYLE
  5
8A3
102
{ACAD_XDICTIONARY
360
B05
102
}
102
{ACAD_REACTORS
330
896
102
}
330
896
100
AcDbVisualStyle
  2
Thicken
 70
    13
 71
     2
 72
     2
 73
     0
 90
        0
 40
-0.6
 41
-30.0
 62
     5
 63
     7
421
 16777215
 74
     1
 91
        4
 64
     7
 65
   257
 75
     1
175
     1
 42
1.0
 92
       12
 66
     7
 43
1.0
 76
     1
 77
     6
 78
     2
 67
     7
 79
     5
170
     0
171
     0
290
     0
174
     0
 93
        1
 44
0.0
173
     0
291
     1
 45
0.0
1001
ACAD
1000
AcDbSavedByObjectVersion
1070
     0
  0
VISUALSTYLE
  5
89D
102
{ACAD_XDICTIONARY
360
AF9
102
}
102
{ACAD_REACTORS
330
896
102
}
330
896
100
AcDbVisualStyle
  2
Wireframe
 70
     5
 71
     0
 72
     2
 73
     0
 90
        0
 40
-0.6
 41
-30.0
 62
     5
 63
     7
421
 16777215
 74
     1
 91
        4
 64
     7
 65
   257
 75
     1
175
     1
 42
1.0
 92
        0
 66
   257
 43
1.0
 76
     1
 77
     6
 78
     2
 67
     7
 79
     3
170
     0
171
     0
290
     0
174
     0
 93
        1
 44
0.0
173
     0
291
     0
 45
0.0
1001
ACAD
1000
AcDbSavedByObjectVersion
1070
     0
  0
VISUALSTYLE
  5
8A9
102
{ACAD_XDICTIONARY
360
B11
102
}
102
{ACAD_REACTORS
330
896
102
}
330
896
100
AcDbVisualStyle
  2
X-Ray
 70
    25
 71
     2
 72
     2
 73
     1
 90
        1
 40
0.5
 41
-30.0
 62
     5
 63
     7
421
 16777215
 74
     1
 91
        0
 64
     7
 65
   257
 75
     1
175
     1
 42
1.0
 92
        8
 66
     7
 43
1.0
 76
     1
 77
     6
 78
     2
 67
     7
 79
     3
170
     0
171
     0
290
     0
174
     0
 93
       13
 44
0.0
173
     0
291
     0
 45
0.0
1001
ACAD
1000
AcDbSavedByObjectVersion
1070
     0
  0
DICTIONARYVAR
  5
924
102
{ACAD_REACTORS
330
60C
102
}
330
60C
100
DictionaryVariables
280
     0
  1
1:1
  0
DICTIONARYVAR
  5
920
102
{ACAD_REACTORS
330
60C
102
}
330
60C
100
DictionaryVariables
280
     0
  1
STANDARD
  0
DICTIONARYVAR
  5
60D
102
{ACAD_REACTORS
330
60C
102
}
330
60C
100
DictionaryVariables
280
     0
  1
STANDARD
  0
DICTIONARYVAR
  5
921
102
{ACAD_REACTORS
330
60C
102
}
330
60C
100
DictionaryVariables
280
     0
  1
Metric50
  0
DICTIONARYVAR
  5
922
102
{ACAD_REACTORS
330
60C
102
}
330
60C
100
DictionaryVariables
280
     0
  1
Metric50
  0
DICTIONARYVAR
  5
60E
102
{ACAD_REACTORS
330
60C
102
}
330
60C
100
DictionaryVariables
280
     0
  1
1
  0
DICTIONARYVAR
  5
926
102
{ACAD_REACTORS
330
60C
102
}
330
60C
100
DictionaryVariables
280
     0
  1
1
  0
DICTIONARYVAR
  5
927
102
{ACAD_REACTORS
330
60C
102
}
330
60C
100
DictionaryVariables
280
     0
  1
15
  0
DICTIONARYVAR
  5
925
102
{ACAD_REACTORS
330
60C
102
}
330
60C
100
DictionaryVariables
280
     0
  1
0
  0
DICTIONARYVAR
  5
923
102
{ACAD_REACTORS
330
60C
102
}
330
60C
100
DictionaryVariables
280
     0
  1
0
  0
DICTIONARYVAR
  5
60F
102
{ACAD_REACTORS
330
60C
102
}
330
60C
100
DictionaryVariables
280
     0
  1

  0
DICTIONARY
  5
B22
330
8C6
100
AcDbDictionary
280
     1
281
     1
  3
ACAD_XREC_ROUNDTRIP
360
B23
  0
DICTIONARY
  5
887
330
886
100
AcDbDictionary
280
     1
281
     1
  3
ACAD_XREC_ROUNDTRIP
360
AEB
  3
BUMPTILE
360
889
  3
DIFFUSETILE
360
888
  3
OPACITYTILE
360
88C
  3
REFLECTIONTILE
360
88B
  3
REFRACTIONTILE
360
88D
  3
SPECULARTILE
360
88A
  0
DICTIONARY
  5
87F
330
87E
100
AcDbDictionary
280
     1
281
     1
  3
ACAD_XREC_ROUNDTRIP
360
AEA
  3
BUMPTILE
360
881
  3
DIFFUSETILE
360
880
  3
OPACITYTILE
360
884
  3
REFLECTIONTILE
360
883
  3
REFRACTIONTILE
360
885
  3
SPECULARTILE
360
882
  0
DICTIONARY
  5
88F
330
88E
100
AcDbDictionary
280
     1
281
     1
  3
ACAD_XREC_ROUNDTRIP
360
AEC
  3
BUMPTILE
360
891
  3
DIFFUSETILE
360
890
  3
OPACITYTILE
360
894
  3
REFLECTIONTILE
360
893
  3
REFRACTIONTILE
360
895
  3
SPECULARTILE
360
892
  0
DICTIONARY
  5
B1E
330
8C2
100
AcDbDictionary
280
     1
281
     1
  3
ACAD_XREC_ROUNDTRIP
360
B1F
  0
DICTIONARY
  5
B20
330
8C4
100
AcDbDictionary
280
     1
281
     1
  3
ACAD_XREC_ROUNDTRIP
360
B21
  0
DICTIONARY
  5
AE6
330
608
100
AcDbDictionary
280
     1
281
     1
  3
ACAD_ROUNDTRIP_2008_TABLESTYLE_CELLSTYLEMAP
360
AE7
  3
ACAD_XREC_ROUNDTRIP
360
AE9
  0
DICTIONARY
  5
AF7
330
89C
100
AcDbDictionary
280
     1
281
     1
  3
ACAD_XREC_ROUNDTRIP
360
AF8
  0
DICTIONARY
  5
AF5
330
89B
100
AcDbDictionary
280
     1
281
     1
  3
ACAD_XREC_ROUNDTRIP
360
AF6
  0
DICTIONARY
  5
B03
330
8A2
100
AcDbDictionary
280
     1
281
     1
  3
ACAD_XREC_ROUNDTRIP
360
B04
  0
DICTIONARY
  5
B0B
330
8A6
100
AcDbDictionary
280
     1
281
     1
  3
ACAD_XREC_ROUNDTRIP
360
B0C
  0
DICTIONARY
  5
AFD
330
89F
100
AcDbDictionary
280
     1
281
     1
  3
ACAD_XREC_ROUNDTRIP
360
AFE
  0
DICTIONARY
  5
B01
330
8A1
100
AcDbDictionary
280
     1
281
     1
  3
ACAD_XREC_ROUNDTRIP
360
B02
  0
DICTIONARY
  5
B1B
330
8AE
100
AcDbDictionary
280
     1
281
     1
  3
ACAD_XREC_ROUNDTRIP
360
B1C
  0
DICTIONARY
  5
B09
330
8A5
100
AcDbDictionary
280
     1
281
     1
  3
ACAD_XREC_ROUNDTRIP
360
B0A
  0
DICTIONARY
  5
AED
330
897
100
AcDbDictionary
280
     1
281
     1
  3
ACAD_XREC_ROUNDTRIP
360
AEE
  0
DICTIONARY
  5
AEF
330
898
100
AcDbDictionary
280
     1
281
     1
  3
ACAD_XREC_ROUNDTRIP
360
AF0
  0
DICTIONARY
  5
AF1
330
899
100
AcDbDictionary
280
     1
281
     1
  3
ACAD_XREC_ROUNDTRIP
360
AF2
  0
DICTIONARY
  5
AF3
330
89A
100
AcDbDictionary
280
     1
281
     1
  3
ACAD_XREC_ROUNDTRIP
360
AF4
  0
DICTIONARY
  5
AFB
330
89E
100
AcDbDictionary
280
     1
281
     1
  3
ACAD_XREC_ROUNDTRIP
360
AFC
  0
DICTIONARY
  5
B17
330
8AC
100
AcDbDictionary
280
     1
281
     1
  3
ACAD_XREC_ROUNDTRIP
360
B18
  0
DICTIONARY
  5
B07
330
8A4
100
AcDbDictionary
280
     1
281
     1
  3
ACAD_XREC_ROUNDTRIP
360
B08
  0
DICTIONARY
  5
B19
330
8AD
100
AcDbDictionary
280
     1
281
     1
  3
ACAD_XREC_ROUNDTRIP
360
B1A
  0
DICTIONARY
  5
AFF
330
8A0
100
AcDbDictionary
280
     1
281
     1
  3
ACAD_XREC_ROUNDTRIP
360
B00
  0
DICTIONARY
  5
B15
330
8AB
100
AcDbDictionary
280
     1
281
     1
  3
ACAD_XREC_ROUNDTRIP
360
B16
  0
DICTIONARY
  5
B13
330
8AA
100
AcDbDictionary
280
     1
281
     1
  3
ACAD_XREC_ROUNDTRIP
360
B14
  0
DICTIONARY
  5
B0D
330
8A7
100
AcDbDictionary
280
     1
281
     1
  3
ACAD_XREC_ROUNDTRIP
360
B0E
  0
DICTIONARY
  5
B0F
330
8A8
100
AcDbDictionary
280
     1
281
     1
  3
ACAD_XREC_ROUNDTRIP
360
B10
  0
DICTIONARY
  5
B05
330
8A3
100
AcDbDictionary
280
     1
281
     1
  3
ACAD_XREC_ROUNDTRIP
360
B06
  0
DICTIONARY
  5
AF9
330
89D
100
AcDbDictionary
280
     1
281
     1
  3
ACAD_XREC_ROUNDTRIP
360
AFA
  0
DICTIONARY
  5
B11
330
8A9
100
AcDbDictionary
280
     1
281
     1
  3
ACAD_XREC_ROUNDTRIP
360
B12
  0
XRECORD
  5
B23
102
{ACAD_REACTORS
330
B22
102
}
330
B22
100
AcDbXrecord
280
     1
102
DISPLAYNAME
  1
Metric50
102
FLAGS
 90
        0
  0
XRECORD
  5
AEB
102
{ACAD_REACTORS
330
887
102
}
330
887
100
AcDbXrecord
280
     1
102
MATERIAL
148
0.0
149
0.0
149
0.0
 93
        0
 94
      127
282
     0
 72
     0
 77
     0
171
     0
175
     0
179
     0
273
     0
  0
XRECORD
  5
889
102
{ACAD_REACTORS
330
887
102
}
330
887
100
AcDbXrecord
280
     1
270
     1
271
     1
  0
XRECORD
  5
888
102
{ACAD_REACTORS
330
887
102
}
330
887
100
AcDbXrecord
280
     1
270
     1
271
     1
  0
XRECORD
  5
88C
102
{ACAD_REACTORS
330
887
102
}
330
887
100
AcDbXrecord
280
     1
270
     1
271
     1
  0
XRECORD
  5
88B
102
{ACAD_REACTORS
330
887
102
}
330
887
100
AcDbXrecord
280
     1
270
     1
271
     1
  0
XRECORD
  5
88D
102
{ACAD_REACTORS
330
887
102
}
330
887
100
AcDbXrecord
280
     1
270
     1
271
     1
  0
XRECORD
  5
88A
102
{ACAD_REACTORS
330
887
102
}
330
887
100
AcDbXrecord
280
     1
270
     1
271
     1
  0
XRECORD
  5
AEA
102
{ACAD_REACTORS
330
87F
102
}
330
87F
100
AcDbXrecord
280
     1
102
MATERIAL
148
0.0
149
0.0
149
0.0
 93
        0
 94
      127
282
     0
 72
     0
 77
     0
171
     0
175
     0
179
     0
273
     0
  0
XRECORD
  5
881
102
{ACAD_REACTORS
330
87F
102
}
330
87F
100
AcDbXrecord
280
     1
270
     1
271
     1
  0
XRECORD
  5
880
102
{ACAD_REACTORS
330
87F
102
}
330
87F
100
AcDbXrecord
280
     1
270
     1
271
     1
  0
XRECORD
  5
884
102
{ACAD_REACTORS
330
87F
102
}
330
87F
100
AcDbXrecord
280
     1
270
     1
271
     1
  0
XRECORD
  5
883
102
{ACAD_REACTORS
330
87F
102
}
330
87F
100
AcDbXrecord
280
     1
270
     1
271
     1
  0
XRECORD
  5
885
102
{ACAD_REACTORS
330
87F
102
}
330
87F
100
AcDbXrecord
280
     1
270
     1
271
     1
  0
XRECORD
  5
882
102
{ACAD_REACTORS
330
87F
102
}
330
87F
100
AcDbXrecord
280
     1
270
     1
271
     1
  0
XRECORD
  5
AEC
102
{ACAD_REACTORS
330
88F
102
}
330
88F
100
AcDbXrecord
280
     1
102
MATERIAL
148
0.0
149
0.0
149
0.0
 93
        0
 94
      127
282
     0
 72
     0
 77
     0
171
     0
175
     0
179
     0
273
     0
  0
XRECORD
  5
891
102
{ACAD_REACTORS
330
88F
102
}
330
88F
100
AcDbXrecord
280
     1
270
     1
271
     1
  0
XRECORD
  5
890
102
{ACAD_REACTORS
330
88F
102
}
330
88F
100
AcDbXrecord
280
     1
270
     1
271
     1
  0
XRECORD
  5
894
102
{ACAD_REACTORS
330
88F
102
}
330
88F
100
AcDbXrecord
280
     1
270
     1
271
     1
  0
XRECORD
  5
893
102
{ACAD_REACTORS
330
88F
102
}
330
88F
100
AcDbXrecord
280
     1
270
     1
271
     1
  0
XRECORD
  5
895
102
{ACAD_REACTORS
330
88F
102
}
330
88F
100
AcDbXrecord
280
     1
270
     1
271
     1
  0
XRECORD
  5
892
102
{ACAD_REACTORS
330
88F
102
}
330
88F
100
AcDbXrecord
280
     1
270
     1
271
     1
  0
XRECORD
  5
B1F
102
{ACAD_REACTORS
330
B1E
102
}
330
B1E
100
AcDbXrecord
280
     1
102
ACAD_ROUNDTRIP_2012_MLEADER_STYLE
298
     1
  0
XRECORD
  5
B21
102
{ACAD_REACTORS
330
B20
102
}
330
B20
100
AcDbXrecord
280
     1
102
DISPLAYNAME
  1
Metric50
102
FLAGS
 90
        0
  0
CELLSTYLEMAP
  5
AE7
102
{ACAD_REACTORS
330
AE6
102
}
330
AE6
100
AcDbCellStyleMap
 90
        3
300
CELLSTYLE
  1
TABLEFORMAT_BEGIN
 90
        5
170
     1
 91
        0
 92
    32768
 62
   257
 93
        1
300
CONTENTFORMAT
  1
CONTENTFORMAT_BEGIN
 90
        0
 91
        0
 92
        4
 93
        0
300

 40
0.0
140
1.0
 94
        5
 62
     0
340
11
144
6.0
309
CONTENTFORMAT_END
171
     1
301
MARGIN
  1
CELLMARGIN_BEGIN
 40
1.5
 40
1.5
 40
1.5
 40
1.5
 40
0.18
 40
0.18
309
CELLMARGIN_END
 94
        6
 95
        1
302
GRIDFORMAT
  1
GRIDFORMAT_BEGIN
 90
        0
 91
        1
 62
     0
 92
       -2
340
0
 93
        0
 40
0.045
309
GRIDFORMAT_END
 95
        2
302
GRIDFORMAT
  1
GRIDFORMAT_BEGIN
 90
        0
 91
        1
 62
     0
 92
       -2
340
0
 93
        0
 40
0.045
309
GRIDFORMAT_END
 95
        4
302
GRIDFORMAT
  1
GRIDFORMAT_BEGIN
 90
        0
 91
        1
 62
     0
 92
       -2
340
0
 93
        0
 40
0.045
309
GRIDFORMAT_END
 95
        8
302
GRIDFORMAT
  1
GRIDFORMAT_BEGIN
 90
        0
 91
        1
 62
     0
 92
       -2
340
0
 93
        0
 40
0.045
309
GRIDFORMAT_END
 95
       16
302
GRIDFORMAT
  1
GRIDFORMAT_BEGIN
 90
        0
 91
        1
 62
     0
 92
       -2
340
0
 93
        0
 40
0.045
309
GRIDFORMAT_END
 95
       32
302
GRIDFORMAT
  1
GRIDFORMAT_BEGIN
 90
        0
 91
        1
 62
     0
 92
       -2
340
0
 93
        0
 40
0.045
309
GRIDFORMAT_END
309
TABLEFORMAT_END
  1
CELLSTYLE_BEGIN
 90
        1
 91
        1
300
_TITLE
309
CELLSTYLE_END
300
CELLSTYLE
  1
TABLEFORMAT_BEGIN
 90
        5
170
     1
 91
        0
 92
        0
 62
   257
 93
        1
300
CONTENTFORMAT
  1
CONTENTFORMAT_BEGIN
 90
        0
 91
        0
 92
        4
 93
        0
300

 40
0.0
140
1.0
 94
        5
 62
     0
340
11
144
4.5
309
CONTENTFORMAT_END
171
     1
301
MARGIN
  1
CELLMARGIN_BEGIN
 40
1.5
 40
1.5
 40
1.5
 40
1.5
 40
0.18
 40
0.18
309
CELLMARGIN_END
 94
        6
 95
        1
302
GRIDFORMAT
  1
GRIDFORMAT_BEGIN
 90
        0
 91
        1
 62
     0
 92
       -2
340
0
 93
        0
 40
0.045
309
GRIDFORMAT_END
 95
        2
302
GRIDFORMAT
  1
GRIDFORMAT_BEGIN
 90
        0
 91
        1
 62
     0
 92
       -2
340
0
 93
        0
 40
0.045
309
GRIDFORMAT_END
 95
        4
302
GRIDFORMAT
  1
GRIDFORMAT_BEGIN
 90
        0
 91
        1
 62
     0
 92
       -2
340
0
 93
        0
 40
0.045
309
GRIDFORMAT_END
 95
        8
302
GRIDFORMAT
  1
GRIDFORMAT_BEGIN
 90
        0
 91
        1
 62
     0
 92
       -2
340
0
 93
        0
 40
0.045
309
GRIDFORMAT_END
 95
       16
302
GRIDFORMAT
  1
GRIDFORMAT_BEGIN
 90
        0
 91
        1
 62
     0
 92
       -2
340
0
 93
        0
 40
0.045
309
GRIDFORMAT_END
 95
       32
302
GRIDFORMAT
  1
GRIDFORMAT_BEGIN
 90
        0
 91
        1
 62
     0
 92
       -2
340
0
 93
        0
 40
0.045
309
GRIDFORMAT_END
309
TABLEFORMAT_END
  1
CELLSTYLE_BEGIN
 90
        2
 91
        1
300
_HEADER
309
CELLSTYLE_END
300
CELLSTYLE
  1
TABLEFORMAT_BEGIN
 90
        5
170
     1
 91
        0
 92
        0
 62
   257
 93
        1
300
CONTENTFORMAT
  1
CONTENTFORMAT_BEGIN
 90
        0
 91
        0
 92
        4
 93
        0
300

 40
0.0
140
1.0
 94
        2
 62
     0
340
11
144
4.5
309
CONTENTFORMAT_END
171
     1
301
MARGIN
  1
CELLMARGIN_BEGIN
 40
1.5
 40
1.5
 40
1.5
 40
1.5
 40
0.18
 40
0.18
309
CELLMARGIN_END
 94
        6
 95
        1
302
GRIDFORMAT
  1
GRIDFORMAT_BEGIN
 90
        0
 91
        1
 62
     0
 92
       -2
340
0
 93
        0
 40
0.045
309
GRIDFORMAT_END
 95
        2
302
GRIDFORMAT
  1
GRIDFORMAT_BEGIN
 90
        0
 91
        1
 62
     0
 92
       -2
340
0
 93
        0
 40
0.045
309
GRIDFORMAT_END
 95
        4
302
GRIDFORMAT
  1
GRIDFORMAT_BEGIN
 90
        0
 91
        1
 62
     0
 92
       -2
340
0
 93
        0
 40
0.045
309
GRIDFORMAT_END
 95
        8
302
GRIDFORMAT
  1
GRIDFORMAT_BEGIN
 90
        0
 91
        1
 62
     0
 92
       -2
340
0
 93
        0
 40
0.045
309
GRIDFORMAT_END
 95
       16
302
GRIDFORMAT
  1
GRIDFORMAT_BEGIN
 90
        0
 91
        1
 62
     0
 92
       -2
340
0
 93
        0
 40
0.045
309
GRIDFORMAT_END
 95
       32
302
GRIDFORMAT
  1
GRIDFORMAT_BEGIN
 90
        0
 91
        1
 62
     0
 92
       -2
340
0
 93
        0
 40
0.045
309
GRIDFORMAT_END
309
TABLEFORMAT_END
  1
CELLSTYLE_BEGIN
 90
        3
 91
        2
300
_DATA
309
CELLSTYLE_END
  0
XRECORD
  5
AE9
102
{ACAD_REACTORS
330
AE6
102
}
330
AE6
100
AcDbXrecord
280
     1
102
ACAD_ROUNDTRIP_PRE2007_TABLESTYLE
 90
        4
 91
        0
  1

 92
        4
 93
        0
  2

 94
        4
 95
        0
  3

  0
XRECORD
  5
AF8
102
{ACAD_REACTORS
330
AF7
102
}
330
AF7
100
AcDbXrecord
280
     1
102
RTVSPost2010Prop28
280
     1
102
RTVSPost2010PropOp28
 70
     1
102
RTVSPost2010Prop29
280
     1
102
RTVSPost2010PropOp29
 70
     1
102
RTVSPost2010Prop30
280
     0
102
RTVSPost2010PropOp30
 70
     1
102
RTVSPost2010Prop31
280
     0
102
RTVSPost2010PropOp31
 70
     1
102
RTVSPost2010Prop32
280
     0
102
RTVSPost2010PropOp32
 70
     1
102
RTVSPost2010Prop33
280
     0
102
RTVSPost2010PropOp33
 70
     1
102
RTVSPost2010Prop34
280
     0
102
RTVSPost2010PropOp34
 70
     1
102
RTVSPost2010Prop35
280
     0
102
RTVSPost2010PropOp35
 70
     1
102
RTVSPost2010Prop36
280
     0
102
RTVSPost2010PropOp36
 70
     1
102
RTVSPost2010Prop37
 90
       50
102
RTVSPost2010PropOp37
 70
     1
102
RTVSPost2010Prop38
140
0.0
102
RTVSPost2010PropOp38
 70
     1
102
RTVSPost2010Prop39
140
1.0
102
RTVSPost2010PropOp39
 70
     1
102
RTVSPost2010Prop40
 90
        0
102
RTVSPost2010PropOp40
 70
     1
102
RTVSPost2010Prop41ColorIndex
 90
       18
102
RTVSPost2010Prop41ColorRGB
 90
        0
102
RTVSPost2010PropOp41
 70
     1
102
RTVSPost2010Prop42
 90
       50
102
RTVSPost2010PropOp42
 70
     1
102
RTVSPost2010Prop43
 90
        3
102
RTVSPost2010PropOp43
 70
     1
102
RTVSPost2010Prop44ColorIndex
 90
        5
102
RTVSPost2010Prop44ColorRGB
 90
      255
102
RTVSPost2010PropOp44
 70
     1
102
RTVSPost2010Prop45
280
     0
102
RTVSPost2010PropOp45
 70
     1
102
RTVSPost2010Prop46
 90
       50
102
RTVSPost2010PropOp46
 70
     1
102
RTVSPost2010Prop47
 90
       50
102
RTVSPost2010PropOp47
 70
     1
102
RTVSPost2010Prop48
 90
       50
102
RTVSPost2010PropOp48
 70
     1
102
RTVSPost2010Prop49
280
     0
102
RTVSPost2010PropOp49
 70
     1
102
RTVSPost2010Prop50
 90
       50
102
RTVSPost2010PropOp50
 70
     1
102
RTVSPost2010Prop51ColorIndex
 90
      256
102
RTVSPost2010Prop51ColorRGB
 90
-16777216
102
RTVSPost2010PropOp51
 70
     0
102
RTVSPost2010Prop52
140
1.0
102
RTVSPost2010PropOp52
 70
     0
102
RTVSPost2010Prop53
 90
        2
102
RTVSPost2010PropOp53
 70
     1
102
RTVSPost2010Prop54
  1
strokes_ogs.tif
102
RTVSPost2010PropOp54
 70
     1
102
RTVSPost2010Prop55
280
     0
102
RTVSPost2010PropOp55
 70
     1
102
RTVSPost2010Prop56
140
1.0
102
RTVSPost2010PropOp56
 70
     1
102
RTVSPost2010Prop57
140
1.0
102
RTVSPost2010PropOp57
 70
     1
102
RTVSPropertyOp0
 70
     1
102
RTVSPropertyOp1
 70
     1
102
RTVSPropertyOp2
 70
     1
102
RTVSPropertyOp3
 70
     1
102
RTVSPropertyOp4
 70
     1
102
RTVSPropertyOp5
 70
     1
102
RTVSPropertyOp6
 70
     1
102
RTVSPropertyOp7
 70
     1
102
RTVSPropertyOp8
 70
     1
102
RTVSPropertyOp9
 70
     1
102
RTVSPropertyOp10
 70
     1
102
RTVSPropertyOp11
 70
     1
102
RTVSPropertyOp12
 70
     1
102
RTVSPropertyOp13
 70
     1
102
RTVSPropertyOp14
 70
     1
102
RTVSPropertyOp15
 70
     1
102
RTVSPropertyOp16
 70
     1
102
RTVSPropertyOp17
 70
     1
102
RTVSPropertyOp18
 70
     1
102
RTVSPropertyOp19
 70
     1
102
RTVSPropertyOp20
 70
     1
102
RTVSPropertyOp21
 70
     1
102
RTVSPropertyOp22
 70
     1
102
RTVSPropertyOp23
 70
     1
102
RTVSPropertyOp24
 70
     1
102
RTVSPropertyOp25
 70
     1
102
RTVSPropertyOp26
 70
     1
102
RTVSPropertyOp27
 70
     1
102
RTVSPropertyOp28
 70
     1
102
RTVSPropertyOp29
 70
     1
102
RTVSPropertyOp30
 70
     1
102
RTVSPropertyOp31
 70
     1
102
RTVSPropertyOp32
 70
     1
102
RTVSPropertyOp33
 70
     1
102
RTVSPropertyOp34
 70
     1
102
RTVSPropertyOp35
 70
     1
102
RTVSPropertyOp36
 70
     1
102
RTVSPropertyOp37
 70
     1
102
RTVSPropertyOp38
 70
     1
102
RTVSPropertyOp39
 70
     1
102
RTVSPropertyOp40
 70
     1
102
RTVSPropertyOp41
 70
     1
102
RTVSPropertyOp42
 70
     1
102
RTVSPropertyOp43
 70
     1
102
RTVSPropertyOp44
 70
     1
102
RTVSPropertyOp45
 70
     1
102
RTVSPropertyOp46
 70
     1
102
RTVSPropertyOp47
 70
     1
102
RTVSPropertyOp48
 70
     1
102
RTVSPropertyOp49
 70
     1
102
RTVSPropertyOp50
 70
     1
102
RTVSPropertyOp51
 70
     0
102
RTVSPropertyOp52
 70
     0
102
RTVSPropertyOp53
 70
     1
102
RTVSPropertyOp54
 70
     1
102
RTVSPropertyOp55
 70
     1
102
RTVSPropertyOp56
 70
     1
102
RTVSPropertyOp57
 70
     1
102
RTVSPropertyOp58
 70
     1
102
RTVSPropertyOp59
 70
     1
102
RTVSPropertyOp60
 70
     1
102
RTVSPropertyOp61
 70
     1
102
RTVSPropertyOp62
 70
     1
  0
XRECORD
  5
AF6
102
{ACAD_REACTORS
330
AF5
102
}
330
AF5
100
AcDbXrecord
280
     1
102
RTVSPost2010Prop28
280
     0
102
RTVSPost2010PropOp28
 70
     1
102
RTVSPost2010Prop29
280
     1
102
RTVSPost2010PropOp29
 70
     1
102
RTVSPost2010Prop30
280
     1
102
RTVSPost2010PropOp30
 70
     1
102
RTVSPost2010Prop31
280
     0
102
RTVSPost2010PropOp31
 70
     1
102
RTVSPost2010Prop32
280
     0
102
RTVSPost2010PropOp32
 70
     1
102
RTVSPost2010Prop33
280
     0
102
RTVSPost2010PropOp33
 70
     1
102
RTVSPost2010Prop34
280
     0
102
RTVSPost2010PropOp34
 70
     1
102
RTVSPost2010Prop35
280
     0
102
RTVSPost2010PropOp35
 70
     1
102
RTVSPost2010Prop36
280
     0
102
RTVSPost2010PropOp36
 70
     1
102
RTVSPost2010Prop37
 90
       50
102
RTVSPost2010PropOp37
 70
     1
102
RTVSPost2010Prop38
140
0.0
102
RTVSPost2010PropOp38
 70
     1
102
RTVSPost2010Prop39
140
1.0
102
RTVSPost2010PropOp39
 70
     1
102
RTVSPost2010Prop40
 90
        0
102
RTVSPost2010PropOp40
 70
     1
102
RTVSPost2010Prop41ColorIndex
 90
       18
102
RTVSPost2010Prop41ColorRGB
 90
        0
102
RTVSPost2010PropOp41
 70
     1
102
RTVSPost2010Prop42
 90
       50
102
RTVSPost2010PropOp42
 70
     1
102
RTVSPost2010Prop43
 90
        3
102
RTVSPost2010PropOp43
 70
     1
102
RTVSPost2010Prop44ColorIndex
 90
        5
102
RTVSPost2010Prop44ColorRGB
 90
      255
102
RTVSPost2010PropOp44
 70
     1
102
RTVSPost2010Prop45
280
     0
102
RTVSPost2010PropOp45
 70
     1
102
RTVSPost2010Prop46
 90
       50
102
RTVSPost2010PropOp46
 70
     1
102
RTVSPost2010Prop47
 90
       50
102
RTVSPost2010PropOp47
 70
     1
102
RTVSPost2010Prop48
 90
       50
102
RTVSPost2010PropOp48
 70
     1
102
RTVSPost2010Prop49
280
     0
102
RTVSPost2010PropOp49
 70
     1
102
RTVSPost2010Prop50
 90
       50
102
RTVSPost2010PropOp50
 70
     1
102
RTVSPost2010Prop51ColorIndex
 90
      256
102
RTVSPost2010Prop51ColorRGB
 90
-16777216
102
RTVSPost2010PropOp51
 70
     0
102
RTVSPost2010Prop52
140
1.0
102
RTVSPost2010PropOp52
 70
     0
102
RTVSPost2010Prop53
 90
        2
102
RTVSPost2010PropOp53
 70
     1
102
RTVSPost2010Prop54
  1
strokes_ogs.tif
102
RTVSPost2010PropOp54
 70
     1
102
RTVSPost2010Prop55
280
     0
102
RTVSPost2010PropOp55
 70
     1
102
RTVSPost2010Prop56
140
1.0
102
RTVSPost2010PropOp56
 70
     1
102
RTVSPost2010Prop57
140
1.0
102
RTVSPost2010PropOp57
 70
     1
102
RTVSPropertyOp0
 70
     1
102
RTVSPropertyOp1
 70
     1
102
RTVSPropertyOp2
 70
     1
102
RTVSPropertyOp3
 70
     1
102
RTVSPropertyOp4
 70
     1
102
RTVSPropertyOp5
 70
     1
102
RTVSPropertyOp6
 70
     1
102
RTVSPropertyOp7
 70
     1
102
RTVSPropertyOp8
 70
     1
102
RTVSPropertyOp9
 70
     1
102
RTVSPropertyOp10
 70
     1
102
RTVSPropertyOp11
 70
     1
102
RTVSPropertyOp12
 70
     1
102
RTVSPropertyOp13
 70
     1
102
RTVSPropertyOp14
 70
     1
102
RTVSPropertyOp15
 70
     1
102
RTVSPropertyOp16
 70
     1
102
RTVSPropertyOp17
 70
     1
102
RTVSPropertyOp18
 70
     1
102
RTVSPropertyOp19
 70
     1
102
RTVSPropertyOp20
 70
     1
102
RTVSPropertyOp21
 70
     1
102
RTVSPropertyOp22
 70
     1
102
RTVSPropertyOp23
 70
     1
102
RTVSPropertyOp24
 70
     1
102
RTVSPropertyOp25
 70
     1
102
RTVSPropertyOp26
 70
     1
102
RTVSPropertyOp27
 70
     1
102
RTVSPropertyOp28
 70
     1
102
RTVSPropertyOp29
 70
     1
102
RTVSPropertyOp30
 70
     1
102
RTVSPropertyOp31
 70
     1
102
RTVSPropertyOp32
 70
     1
102
RTVSPropertyOp33
 70
     1
102
RTVSPropertyOp34
 70
     1
102
RTVSPropertyOp35
 70
     1
102
RTVSPropertyOp36
 70
     1
102
RTVSPropertyOp37
 70
     1
102
RTVSPropertyOp38
 70
     1
102
RTVSPropertyOp39
 70
     1
102
RTVSPropertyOp40
 70
     1
102
RTVSPropertyOp41
 70
     1
102
RTVSPropertyOp42
 70
     1
102
RTVSPropertyOp43
 70
     1
102
RTVSPropertyOp44
 70
     1
102
RTVSPropertyOp45
 70
     1
102
RTVSPropertyOp46
 70
     1
102
RTVSPropertyOp47
 70
     1
102
RTVSPropertyOp48
 70
     1
102
RTVSPropertyOp49
 70
     1
102
RTVSPropertyOp50
 70
     1
102
RTVSPropertyOp51
 70
     0
102
RTVSPropertyOp52
 70
     0
102
RTVSPropertyOp53
 70
     1
102
RTVSPropertyOp54
 70
     1
102
RTVSPropertyOp55
 70
     1
102
RTVSPropertyOp56
 70
     1
102
RTVSPropertyOp57
 70
     1
102
RTVSPropertyOp58
 70
     1
102
RTVSPropertyOp59
 70
     1
102
RTVSPropertyOp60
 70
     1
102
RTVSPropertyOp61
 70
     1
102
RTVSPropertyOp62
 70
     1
  0
XRECORD
  5
B04
102
{ACAD_REACTORS
330
B03
102
}
330
B03
100
AcDbXrecord
280
     1
102
RTVSPost2010Prop28
280
     0
102
RTVSPost2010PropOp28
 70
     1
102
RTVSPost2010Prop29
280
     1
102
RTVSPost2010PropOp29
 70
     1
102
RTVSPost2010Prop30
280
     1
102
RTVSPost2010PropOp30
 70
     1
102
RTVSPost2010Prop31
280
     0
102
RTVSPost2010PropOp31
 70
     1
102
RTVSPost2010Prop32
280
     0
102
RTVSPost2010PropOp32
 70
     1
102
RTVSPost2010Prop33
280
     0
102
RTVSPost2010PropOp33
 70
     1
102
RTVSPost2010Prop34
280
     0
102
RTVSPost2010PropOp34
 70
     1
102
RTVSPost2010Prop35
280
     0
102
RTVSPost2010PropOp35
 70
     1
102
RTVSPost2010Prop36
280
     0
102
RTVSPost2010PropOp36
 70
     1
102
RTVSPost2010Prop37
 90
       50
102
RTVSPost2010PropOp37
 70
     1
102
RTVSPost2010Prop38
140
0.0
102
RTVSPost2010PropOp38
 70
     1
102
RTVSPost2010Prop39
140
1.0
102
RTVSPost2010PropOp39
 70
     1
102
RTVSPost2010Prop40
 90
        0
102
RTVSPost2010PropOp40
 70
     1
102
RTVSPost2010Prop41ColorIndex
 90
       18
102
RTVSPost2010Prop41ColorRGB
 90
        0
102
RTVSPost2010PropOp41
 70
     1
102
RTVSPost2010Prop42
 90
       50
102
RTVSPost2010PropOp42
 70
     1
102
RTVSPost2010Prop43
 90
        3
102
RTVSPost2010PropOp43
 70
     1
102
RTVSPost2010Prop44ColorIndex
 90
        5
102
RTVSPost2010Prop44ColorRGB
 90
      255
102
RTVSPost2010PropOp44
 70
     1
102
RTVSPost2010Prop45
280
     0
102
RTVSPost2010PropOp45
 70
     1
102
RTVSPost2010Prop46
 90
       50
102
RTVSPost2010PropOp46
 70
     1
102
RTVSPost2010Prop47
 90
       50
102
RTVSPost2010PropOp47
 70
     1
102
RTVSPost2010Prop48
 90
       50
102
RTVSPost2010PropOp48
 70
     1
102
RTVSPost2010Prop49
280
     0
102
RTVSPost2010PropOp49
 70
     1
102
RTVSPost2010Prop50
 90
       50
102
RTVSPost2010PropOp50
 70
     1
102
RTVSPost2010Prop51ColorIndex
 90
      256
102
RTVSPost2010Prop51ColorRGB
 90
-16777216
102
RTVSPost2010PropOp51
 70
     0
102
RTVSPost2010Prop52
140
1.0
102
RTVSPost2010PropOp52
 70
     0
102
RTVSPost2010Prop53
 90
        2
102
RTVSPost2010PropOp53
 70
     1
102
RTVSPost2010Prop54
  1
strokes_ogs.tif
102
RTVSPost2010PropOp54
 70
     1
102
RTVSPost2010Prop55
280
     0
102
RTVSPost2010PropOp55
 70
     1
102
RTVSPost2010Prop56
140
1.0
102
RTVSPost2010PropOp56
 70
     1
102
RTVSPost2010Prop57
140
1.0
102
RTVSPost2010PropOp57
 70
     1
102
RTVSPropertyOp0
 70
     1
102
RTVSPropertyOp1
 70
     1
102
RTVSPropertyOp2
 70
     1
102
RTVSPropertyOp3
 70
     1
102
RTVSPropertyOp4
 70
     1
102
RTVSPropertyOp5
 70
     1
102
RTVSPropertyOp6
 70
     1
102
RTVSPropertyOp7
 70
     1
102
RTVSPropertyOp8
 70
     1
102
RTVSPropertyOp9
 70
     1
102
RTVSPropertyOp10
 70
     1
102
RTVSPropertyOp11
 70
     1
102
RTVSPropertyOp12
 70
     1
102
RTVSPropertyOp13
 70
     1
102
RTVSPropertyOp14
 70
     1
102
RTVSPropertyOp15
 70
     1
102
RTVSPropertyOp16
 70
     1
102
RTVSPropertyOp17
 70
     1
102
RTVSPropertyOp18
 70
     1
102
RTVSPropertyOp19
 70
     1
102
RTVSPropertyOp20
 70
     1
102
RTVSPropertyOp21
 70
     1
102
RTVSPropertyOp22
 70
     1
102
RTVSPropertyOp23
 70
     1
102
RTVSPropertyOp24
 70
     1
102
RTVSPropertyOp25
 70
     1
102
RTVSPropertyOp26
 70
     1
102
RTVSPropertyOp27
 70
     1
102
RTVSPropertyOp28
 70
     1
102
RTVSPropertyOp29
 70
     1
102
RTVSPropertyOp30
 70
     1
102
RTVSPropertyOp31
 70
     1
102
RTVSPropertyOp32
 70
     1
102
RTVSPropertyOp33
 70
     1
102
RTVSPropertyOp34
 70
     1
102
RTVSPropertyOp35
 70
     1
102
RTVSPropertyOp36
 70
     1
102
RTVSPropertyOp37
 70
     1
102
RTVSPropertyOp38
 70
     1
102
RTVSPropertyOp39
 70
     1
102
RTVSPropertyOp40
 70
     1
102
RTVSPropertyOp41
 70
     1
102
RTVSPropertyOp42
 70
     1
102
RTVSPropertyOp43
 70
     1
102
RTVSPropertyOp44
 70
     1
102
RTVSPropertyOp45
 70
     1
102
RTVSPropertyOp46
 70
     1
102
RTVSPropertyOp47
 70
     1
102
RTVSPropertyOp48
 70
     1
102
RTVSPropertyOp49
 70
     1
102
RTVSPropertyOp50
 70
     1
102
RTVSPropertyOp51
 70
     0
102
RTVSPropertyOp52
 70
     0
102
RTVSPropertyOp53
 70
     1
102
RTVSPropertyOp54
 70
     1
102
RTVSPropertyOp55
 70
     1
102
RTVSPropertyOp56
 70
     1
102
RTVSPropertyOp57
 70
     1
102
RTVSPropertyOp58
 70
     1
102
RTVSPropertyOp59
 70
     1
102
RTVSPropertyOp60
 70
     1
102
RTVSPropertyOp61
 70
     1
102
RTVSPropertyOp62
 70
     1
  0
XRECORD
  5
B0C
102
{ACAD_REACTORS
330
B0B
102
}
330
B0B
100
AcDbXrecord
280
     1
102
RTVSPost2010Prop28
280
     0
102
RTVSPost2010PropOp28
 70
     1
102
RTVSPost2010Prop29
280
     1
102
RTVSPost2010PropOp29
 70
     1
102
RTVSPost2010Prop30
280
     1
102
RTVSPost2010PropOp30
 70
     1
102
RTVSPost2010Prop31
280
     0
102
RTVSPost2010PropOp31
 70
     1
102
RTVSPost2010Prop32
280
     0
102
RTVSPost2010PropOp32
 70
     1
102
RTVSPost2010Prop33
280
     0
102
RTVSPost2010PropOp33
 70
     1
102
RTVSPost2010Prop34
280
     0
102
RTVSPost2010PropOp34
 70
     1
102
RTVSPost2010Prop35
280
     0
102
RTVSPost2010PropOp35
 70
     1
102
RTVSPost2010Prop36
280
     0
102
RTVSPost2010PropOp36
 70
     1
102
RTVSPost2010Prop37
 90
       50
102
RTVSPost2010PropOp37
 70
     1
102
RTVSPost2010Prop38
140
0.0
102
RTVSPost2010PropOp38
 70
     1
102
RTVSPost2010Prop39
140
1.0
102
RTVSPost2010PropOp39
 70
     1
102
RTVSPost2010Prop40
 90
        0
102
RTVSPost2010PropOp40
 70
     1
102
RTVSPost2010Prop41ColorIndex
 90
       18
102
RTVSPost2010Prop41ColorRGB
 90
        0
102
RTVSPost2010PropOp41
 70
     1
102
RTVSPost2010Prop42
 90
       50
102
RTVSPost2010PropOp42
 70
     1
102
RTVSPost2010Prop43
 90
        3
102
RTVSPost2010PropOp43
 70
     1
102
RTVSPost2010Prop44ColorIndex
 90
        5
102
RTVSPost2010Prop44ColorRGB
 90
      255
102
RTVSPost2010PropOp44
 70
     1
102
RTVSPost2010Prop45
280
     0
102
RTVSPost2010PropOp45
 70
     1
102
RTVSPost2010Prop46
 90
       50
102
RTVSPost2010PropOp46
 70
     1
102
RTVSPost2010Prop47
 90
       50
102
RTVSPost2010PropOp47
 70
     1
102
RTVSPost2010Prop48
 90
       50
102
RTVSPost2010PropOp48
 70
     1
102
RTVSPost2010Prop49
280
     0
102
RTVSPost2010PropOp49
 70
     1
102
RTVSPost2010Prop50
 90
       50
102
RTVSPost2010PropOp50
 70
     1
102
RTVSPost2010Prop51ColorIndex
 90
      256
102
RTVSPost2010Prop51ColorRGB
 90
-16777216
102
RTVSPost2010PropOp51
 70
     0
102
RTVSPost2010Prop52
140
1.0
102
RTVSPost2010PropOp52
 70
     0
102
RTVSPost2010Prop53
 90
        2
102
RTVSPost2010PropOp53
 70
     1
102
RTVSPost2010Prop54
  1
strokes_ogs.tif
102
RTVSPost2010PropOp54
 70
     1
102
RTVSPost2010Prop55
280
     0
102
RTVSPost2010PropOp55
 70
     1
102
RTVSPost2010Prop56
140
1.0
102
RTVSPost2010PropOp56
 70
     1
102
RTVSPost2010Prop57
140
1.0
102
RTVSPost2010PropOp57
 70
     1
102
RTVSPropertyOp0
 70
     1
102
RTVSPropertyOp1
 70
     1
102
RTVSPropertyOp2
 70
     1
102
RTVSPropertyOp3
 70
     1
102
RTVSPropertyOp4
 70
     1
102
RTVSPropertyOp5
 70
     1
102
RTVSPropertyOp6
 70
     1
102
RTVSPropertyOp7
 70
     1
102
RTVSPropertyOp8
 70
     1
102
RTVSPropertyOp9
 70
     1
102
RTVSPropertyOp10
 70
     1
102
RTVSPropertyOp11
 70
     1
102
RTVSPropertyOp12
 70
     1
102
RTVSPropertyOp13
 70
     1
102
RTVSPropertyOp14
 70
     1
102
RTVSPropertyOp15
 70
     1
102
RTVSPropertyOp16
 70
     1
102
RTVSPropertyOp17
 70
     1
102
RTVSPropertyOp18
 70
     1
102
RTVSPropertyOp19
 70
     1
102
RTVSPropertyOp20
 70
     1
102
RTVSPropertyOp21
 70
     1
102
RTVSPropertyOp22
 70
     1
102
RTVSPropertyOp23
 70
     1
102
RTVSPropertyOp24
 70
     1
102
RTVSPropertyOp25
 70
     1
102
RTVSPropertyOp26
 70
     1
102
RTVSPropertyOp27
 70
     1
102
RTVSPropertyOp28
 70
     1
102
RTVSPropertyOp29
 70
     1
102
RTVSPropertyOp30
 70
     1
102
RTVSPropertyOp31
 70
     1
102
RTVSPropertyOp32
 70
     1
102
RTVSPropertyOp33
 70
     1
102
RTVSPropertyOp34
 70
     1
102
RTVSPropertyOp35
 70
     1
102
RTVSPropertyOp36
 70
     1
102
RTVSPropertyOp37
 70
     1
102
RTVSPropertyOp38
 70
     1
102
RTVSPropertyOp39
 70
     1
102
RTVSPropertyOp40
 70
     1
102
RTVSPropertyOp41
 70
     1
102
RTVSPropertyOp42
 70
     1
102
RTVSPropertyOp43
 70
     1
102
RTVSPropertyOp44
 70
     1
102
RTVSPropertyOp45
 70
     1
102
RTVSPropertyOp46
 70
     1
102
RTVSPropertyOp47
 70
     1
102
RTVSPropertyOp48
 70
     1
102
RTVSPropertyOp49
 70
     1
102
RTVSPropertyOp50
 70
     1
102
RTVSPropertyOp51
 70
     0
102
RTVSPropertyOp52
 70
     0
102
RTVSPropertyOp53
 70
     1
102
RTVSPropertyOp54
 70
     1
102
RTVSPropertyOp55
 70
     1
102
RTVSPropertyOp56
 70
     1
102
RTVSPropertyOp57
 70
     1
102
RTVSPropertyOp58
 70
     1
102
RTVSPropertyOp59
 70
     1
102
RTVSPropertyOp60
 70
     1
102
RTVSPropertyOp61
 70
     1
102
RTVSPropertyOp62
 70
     1
  0
XRECORD
  5
AFE
102
{ACAD_REACTORS
330
AFD
102
}
330
AFD
100
AcDbXrecord
280
     1
102
RTVSPost2010Prop28
280
     0
102
RTVSPost2010PropOp28
 70
     1
102
RTVSPost2010Prop29
280
     1
102
RTVSPost2010PropOp29
 70
     1
102
RTVSPost2010Prop30
280
     1
102
RTVSPost2010PropOp30
 70
     1
102
RTVSPost2010Prop31
280
     0
102
RTVSPost2010PropOp31
 70
     1
102
RTVSPost2010Prop32
280
     0
102
RTVSPost2010PropOp32
 70
     1
102
RTVSPost2010Prop33
280
     0
102
RTVSPost2010PropOp33
 70
     1
102
RTVSPost2010Prop34
280
     0
102
RTVSPost2010PropOp34
 70
     1
102
RTVSPost2010Prop35
280
     0
102
RTVSPost2010PropOp35
 70
     1
102
RTVSPost2010Prop36
280
     0
102
RTVSPost2010PropOp36
 70
     1
102
RTVSPost2010Prop37
 90
       50
102
RTVSPost2010PropOp37
 70
     1
102
RTVSPost2010Prop38
140
0.0
102
RTVSPost2010PropOp38
 70
     1
102
RTVSPost2010Prop39
140
1.0
102
RTVSPost2010PropOp39
 70
     1
102
RTVSPost2010Prop40
 90
        0
102
RTVSPost2010PropOp40
 70
     1
102
RTVSPost2010Prop41ColorIndex
 90
       18
102
RTVSPost2010Prop41ColorRGB
 90
        0
102
RTVSPost2010PropOp41
 70
     1
102
RTVSPost2010Prop42
 90
       50
102
RTVSPost2010PropOp42
 70
     1
102
RTVSPost2010Prop43
 90
        3
102
RTVSPost2010PropOp43
 70
     1
102
RTVSPost2010Prop44ColorIndex
 90
        5
102
RTVSPost2010Prop44ColorRGB
 90
      255
102
RTVSPost2010PropOp44
 70
     1
102
RTVSPost2010Prop45
280
     0
102
RTVSPost2010PropOp45
 70
     1
102
RTVSPost2010Prop46
 90
       50
102
RTVSPost2010PropOp46
 70
     1
102
RTVSPost2010Prop47
 90
       50
102
RTVSPost2010PropOp47
 70
     1
102
RTVSPost2010Prop48
 90
       50
102
RTVSPost2010PropOp48
 70
     1
102
RTVSPost2010Prop49
280
     0
102
RTVSPost2010PropOp49
 70
     1
102
RTVSPost2010Prop50
 90
       50
102
RTVSPost2010PropOp50
 70
     1
102
RTVSPost2010Prop51ColorIndex
 90
      256
102
RTVSPost2010Prop51ColorRGB
 90
-16777216
102
RTVSPost2010PropOp51
 70
     0
102
RTVSPost2010Prop52
140
1.0
102
RTVSPost2010PropOp52
 70
     0
102
RTVSPost2010Prop53
 90
        2
102
RTVSPost2010PropOp53
 70
     1
102
RTVSPost2010Prop54
  1
strokes_ogs.tif
102
RTVSPost2010PropOp54
 70
     1
102
RTVSPost2010Prop55
280
     0
102
RTVSPost2010PropOp55
 70
     1
102
RTVSPost2010Prop56
140
1.0
102
RTVSPost2010PropOp56
 70
     1
102
RTVSPost2010Prop57
140
1.0
102
RTVSPost2010PropOp57
 70
     1
102
RTVSPropertyOp0
 70
     1
102
RTVSPropertyOp1
 70
     1
102
RTVSPropertyOp2
 70
     1
102
RTVSPropertyOp3
 70
     1
102
RTVSPropertyOp4
 70
     1
102
RTVSPropertyOp5
 70
     1
102
RTVSPropertyOp6
 70
     1
102
RTVSPropertyOp7
 70
     1
102
RTVSPropertyOp8
 70
     1
102
RTVSPropertyOp9
 70
     1
102
RTVSPropertyOp10
 70
     1
102
RTVSPropertyOp11
 70
     1
102
RTVSPropertyOp12
 70
     1
102
RTVSPropertyOp13
 70
     1
102
RTVSPropertyOp14
 70
     1
102
RTVSPropertyOp15
 70
     1
102
RTVSPropertyOp16
 70
     1
102
RTVSPropertyOp17
 70
     1
102
RTVSPropertyOp18
 70
     1
102
RTVSPropertyOp19
 70
     1
102
RTVSPropertyOp20
 70
     1
102
RTVSPropertyOp21
 70
     1
102
RTVSPropertyOp22
 70
     1
102
RTVSPropertyOp23
 70
     1
102
RTVSPropertyOp24
 70
     1
102
RTVSPropertyOp25
 70
     1
102
RTVSPropertyOp26
 70
     1
102
RTVSPropertyOp27
 70
     1
102
RTVSPropertyOp28
 70
     1
102
RTVSPropertyOp29
 70
     1
102
RTVSPropertyOp30
 70
     1
102
RTVSPropertyOp31
 70
     1
102
RTVSPropertyOp32
 70
     1
102
RTVSPropertyOp33
 70
     1
102
RTVSPropertyOp34
 70
     1
102
RTVSPropertyOp35
 70
     1
102
RTVSPropertyOp36
 70
     1
102
RTVSPropertyOp37
 70
     1
102
RTVSPropertyOp38
 70
     1
102
RTVSPropertyOp39
 70
     1
102
RTVSPropertyOp40
 70
     1
102
RTVSPropertyOp41
 70
     1
102
RTVSPropertyOp42
 70
     1
102
RTVSPropertyOp43
 70
     1
102
RTVSPropertyOp44
 70
     1
102
RTVSPropertyOp45
 70
     1
102
RTVSPropertyOp46
 70
     1
102
RTVSPropertyOp47
 70
     1
102
RTVSPropertyOp48
 70
     1
102
RTVSPropertyOp49
 70
     1
102
RTVSPropertyOp50
 70
     1
102
RTVSPropertyOp51
 70
     0
102
RTVSPropertyOp52
 70
     0
102
RTVSPropertyOp53
 70
     1
102
RTVSPropertyOp54
 70
     1
102
RTVSPropertyOp55
 70
     1
102
RTVSPropertyOp56
 70
     1
102
RTVSPropertyOp57
 70
     1
102
RTVSPropertyOp58
 70
     1
102
RTVSPropertyOp59
 70
     1
102
RTVSPropertyOp60
 70
     1
102
RTVSPropertyOp61
 70
     1
102
RTVSPropertyOp62
 70
     1
  0
XRECORD
  5
B02
102
{ACAD_REACTORS
330
B01
102
}
330
B01
100
AcDbXrecord
280
     1
102
RTVSPost2010Prop28
280
     0
102
RTVSPost2010PropOp28
 70
     1
102
RTVSPost2010Prop29
280
     1
102
RTVSPost2010PropOp29
 70
     1
102
RTVSPost2010Prop30
280
     1
102
RTVSPost2010PropOp30
 70
     1
102
RTVSPost2010Prop31
280
     0
102
RTVSPost2010PropOp31
 70
     1
102
RTVSPost2010Prop32
280
     0
102
RTVSPost2010PropOp32
 70
     1
102
RTVSPost2010Prop33
280
     0
102
RTVSPost2010PropOp33
 70
     1
102
RTVSPost2010Prop34
280
     0
102
RTVSPost2010PropOp34
 70
     1
102
RTVSPost2010Prop35
280
     0
102
RTVSPost2010PropOp35
 70
     1
102
RTVSPost2010Prop36
280
     0
102
RTVSPost2010PropOp36
 70
     1
102
RTVSPost2010Prop37
 90
       50
102
RTVSPost2010PropOp37
 70
     1
102
RTVSPost2010Prop38
140
0.0
102
RTVSPost2010PropOp38
 70
     1
102
RTVSPost2010Prop39
140
1.0
102
RTVSPost2010PropOp39
 70
     1
102
RTVSPost2010Prop40
 90
        0
102
RTVSPost2010PropOp40
 70
     1
102
RTVSPost2010Prop41ColorIndex
 90
       18
102
RTVSPost2010Prop41ColorRGB
 90
        0
102
RTVSPost2010PropOp41
 70
     1
102
RTVSPost2010Prop42
 90
       50
102
RTVSPost2010PropOp42
 70
     1
102
RTVSPost2010Prop43
 90
        3
102
RTVSPost2010PropOp43
 70
     1
102
RTVSPost2010Prop44ColorIndex
 90
        5
102
RTVSPost2010Prop44ColorRGB
 90
      255
102
RTVSPost2010PropOp44
 70
     1
102
RTVSPost2010Prop45
280
     0
102
RTVSPost2010PropOp45
 70
     1
102
RTVSPost2010Prop46
 90
       50
102
RTVSPost2010PropOp46
 70
     1
102
RTVSPost2010Prop47
 90
       50
102
RTVSPost2010PropOp47
 70
     1
102
RTVSPost2010Prop48
 90
       50
102
RTVSPost2010PropOp48
 70
     1
102
RTVSPost2010Prop49
280
     0
102
RTVSPost2010PropOp49
 70
     1
102
RTVSPost2010Prop50
 90
       50
102
RTVSPost2010PropOp50
 70
     1
102
RTVSPost2010Prop51ColorIndex
 90
      256
102
RTVSPost2010Prop51ColorRGB
 90
-16777216
102
RTVSPost2010PropOp51
 70
     0
102
RTVSPost2010Prop52
140
1.0
102
RTVSPost2010PropOp52
 70
     0
102
RTVSPost2010Prop53
 90
        2
102
RTVSPost2010PropOp53
 70
     1
102
RTVSPost2010Prop54
  1
strokes_ogs.tif
102
RTVSPost2010PropOp54
 70
     1
102
RTVSPost2010Prop55
280
     0
102
RTVSPost2010PropOp55
 70
     1
102
RTVSPost2010Prop56
140
1.0
102
RTVSPost2010PropOp56
 70
     1
102
RTVSPost2010Prop57
140
1.0
102
RTVSPost2010PropOp57
 70
     1
102
RTVSPropertyOp0
 70
     1
102
RTVSPropertyOp1
 70
     1
102
RTVSPropertyOp2
 70
     1
102
RTVSPropertyOp3
 70
     1
102
RTVSPropertyOp4
 70
     1
102
RTVSPropertyOp5
 70
     1
102
RTVSPropertyOp6
 70
     1
102
RTVSPropertyOp7
 70
     1
102
RTVSPropertyOp8
 70
     1
102
RTVSPropertyOp9
 70
     1
102
RTVSPropertyOp10
 70
     1
102
RTVSPropertyOp11
 70
     1
102
RTVSPropertyOp12
 70
     1
102
RTVSPropertyOp13
 70
     1
102
RTVSPropertyOp14
 70
     1
102
RTVSPropertyOp15
 70
     1
102
RTVSPropertyOp16
 70
     1
102
RTVSPropertyOp17
 70
     1
102
RTVSPropertyOp18
 70
     1
102
RTVSPropertyOp19
 70
     1
102
RTVSPropertyOp20
 70
     1
102
RTVSPropertyOp21
 70
     1
102
RTVSPropertyOp22
 70
     1
102
RTVSPropertyOp23
 70
     1
102
RTVSPropertyOp24
 70
     1
102
RTVSPropertyOp25
 70
     1
102
RTVSPropertyOp26
 70
     1
102
RTVSPropertyOp27
 70
     1
102
RTVSPropertyOp28
 70
     1
102
RTVSPropertyOp29
 70
     1
102
RTVSPropertyOp30
 70
     1
102
RTVSPropertyOp31
 70
     1
102
RTVSPropertyOp32
 70
     1
102
RTVSPropertyOp33
 70
     1
102
RTVSPropertyOp34
 70
     1
102
RTVSPropertyOp35
 70
     1
102
RTVSPropertyOp36
 70
     1
102
RTVSPropertyOp37
 70
     1
102
RTVSPropertyOp38
 70
     1
102
RTVSPropertyOp39
 70
     1
102
RTVSPropertyOp40
 70
     1
102
RTVSPropertyOp41
 70
     1
102
RTVSPropertyOp42
 70
     1
102
RTVSPropertyOp43
 70
     1
102
RTVSPropertyOp44
 70
     1
102
RTVSPropertyOp45
 70
     1
102
RTVSPropertyOp46
 70
     1
102
RTVSPropertyOp47
 70
     1
102
RTVSPropertyOp48
 70
     1
102
RTVSPropertyOp49
 70
     1
102
RTVSPropertyOp50
 70
     1
102
RTVSPropertyOp51
 70
     0
102
RTVSPropertyOp52
 70
     0
102
RTVSPropertyOp53
 70
     1
102
RTVSPropertyOp54
 70
     1
102
RTVSPropertyOp55
 70
     1
102
RTVSPropertyOp56
 70
     1
102
RTVSPropertyOp57
 70
     1
102
RTVSPropertyOp58
 70
     1
102
RTVSPropertyOp59
 70
     1
102
RTVSPropertyOp60
 70
     1
102
RTVSPropertyOp61
 70
     1
102
RTVSPropertyOp62
 70
     1
  0
XRECORD
  5
B1C
102
{ACAD_REACTORS
330
B1B
102
}
330
B1B
100
AcDbXrecord
280
     1
102
RTVSPost2010Prop28
280
     0
102
RTVSPost2010PropOp28
 70
     0
102
RTVSPost2010Prop29
280
     1
102
RTVSPost2010PropOp29
 70
     0
102
RTVSPost2010Prop30
280
     1
102
RTVSPost2010PropOp30
 70
     0
102
RTVSPost2010Prop31
280
     0
102
RTVSPost2010PropOp31
 70
     0
102
RTVSPost2010Prop32
280
     0
102
RTVSPost2010PropOp32
 70
     0
102
RTVSPost2010Prop33
280
     0
102
RTVSPost2010PropOp33
 70
     0
102
RTVSPost2010Prop34
280
     0
102
RTVSPost2010PropOp34
 70
     0
102
RTVSPost2010Prop35
280
     0
102
RTVSPost2010PropOp35
 70
     0
102
RTVSPost2010Prop36
280
     0
102
RTVSPost2010PropOp36
 70
     0
102
RTVSPost2010Prop37
 90
       50
102
RTVSPost2010PropOp37
 70
     0
102
RTVSPost2010Prop38
140
0.0
102
RTVSPost2010PropOp38
 70
     0
102
RTVSPost2010Prop39
140
1.0
102
RTVSPost2010PropOp39
 70
     0
102
RTVSPost2010Prop40
 90
        0
102
RTVSPost2010PropOp40
 70
     0
102
RTVSPost2010Prop41ColorIndex
 90
       18
102
RTVSPost2010Prop41ColorRGB
 90
        0
102
RTVSPost2010PropOp41
 70
     0
102
RTVSPost2010Prop42
 90
       50
102
RTVSPost2010PropOp42
 70
     0
102
RTVSPost2010Prop43
 90
        3
102
RTVSPost2010PropOp43
 70
     0
102
RTVSPost2010Prop44ColorIndex
 90
        5
102
RTVSPost2010Prop44ColorRGB
 90
      255
102
RTVSPost2010PropOp44
 70
     0
102
RTVSPost2010Prop45
280
     0
102
RTVSPost2010PropOp45
 70
     0
102
RTVSPost2010Prop46
 90
       50
102
RTVSPost2010PropOp46
 70
     0
102
RTVSPost2010Prop47
 90
       50
102
RTVSPost2010PropOp47
 70
     0
102
RTVSPost2010Prop48
 90
       50
102
RTVSPost2010PropOp48
 70
     0
102
RTVSPost2010Prop49
280
     0
102
RTVSPost2010PropOp49
 70
     0
102
RTVSPost2010Prop50
 90
       50
102
RTVSPost2010PropOp50
 70
     0
102
RTVSPost2010Prop51ColorIndex
 90
      256
102
RTVSPost2010Prop51ColorRGB
 90
-16777216
102
RTVSPost2010PropOp51
 70
     0
102
RTVSPost2010Prop52
140
1.0
102
RTVSPost2010PropOp52
 70
     0
102
RTVSPost2010Prop53
 90
        2
102
RTVSPost2010PropOp53
 70
     0
102
RTVSPost2010Prop54
  1
strokes_ogs.tif
102
RTVSPost2010PropOp54
 70
     0
102
RTVSPost2010Prop55
280
     0
102
RTVSPost2010PropOp55
 70
     0
102
RTVSPost2010Prop56
140
1.0
102
RTVSPost2010PropOp56
 70
     0
102
RTVSPost2010Prop57
140
1.0
102
RTVSPost2010PropOp57
 70
     0
102
RTVSPropertyOp0
 70
     0
102
RTVSPropertyOp1
 70
     0
102
RTVSPropertyOp2
 70
     0
102
RTVSPropertyOp3
 70
     0
102
RTVSPropertyOp4
 70
     0
102
RTVSPropertyOp5
 70
     0
102
RTVSPropertyOp6
 70
     0
102
RTVSPropertyOp7
 70
     0
102
RTVSPropertyOp8
 70
     0
102
RTVSPropertyOp9
 70
     0
102
RTVSPropertyOp10
 70
     0
102
RTVSPropertyOp11
 70
     0
102
RTVSPropertyOp12
 70
     0
102
RTVSPropertyOp13
 70
     0
102
RTVSPropertyOp14
 70
     2
102
RTVSPropertyOp15
 70
     0
102
RTVSPropertyOp16
 70
     0
102
RTVSPropertyOp17
 70
     0
102
RTVSPropertyOp18
 70
     0
102
RTVSPropertyOp19
 70
     0
102
RTVSPropertyOp20
 70
     0
102
RTVSPropertyOp21
 70
     0
102
RTVSPropertyOp22
 70
     0
102
RTVSPropertyOp23
 70
     0
102
RTVSPropertyOp24
 70
     0
102
RTVSPropertyOp25
 70
     0
102
RTVSPropertyOp26
 70
     0
102
RTVSPropertyOp27
 70
     0
102
RTVSPropertyOp28
 70
     0
102
RTVSPropertyOp29
 70
     0
102
RTVSPropertyOp30
 70
     0
102
RTVSPropertyOp31
 70
     0
102
RTVSPropertyOp32
 70
     0
102
RTVSPropertyOp33
 70
     0
102
RTVSPropertyOp34
 70
     0
102
RTVSPropertyOp35
 70
     0
102
RTVSPropertyOp36
 70
     0
102
RTVSPropertyOp37
 70
     0
102
RTVSPropertyOp38
 70
     0
102
RTVSPropertyOp39
 70
     0
102
RTVSPropertyOp40
 70
     0
102
RTVSPropertyOp41
 70
     0
102
RTVSPropertyOp42
 70
     0
102
RTVSPropertyOp43
 70
     0
102
RTVSPropertyOp44
 70
     0
102
RTVSPropertyOp45
 70
     0
102
RTVSPropertyOp46
 70
     0
102
RTVSPropertyOp47
 70
     0
102
RTVSPropertyOp48
 70
     0
102
RTVSPropertyOp49
 70
     0
102
RTVSPropertyOp50
 70
     0
102
RTVSPropertyOp51
 70
     0
102
RTVSPropertyOp52
 70
     0
102
RTVSPropertyOp53
 70
     0
102
RTVSPropertyOp54
 70
     0
102
RTVSPropertyOp55
 70
     0
102
RTVSPropertyOp56
 70
     0
102
RTVSPropertyOp57
 70
     0
102
RTVSPropertyOp58
 70
     1
102
RTVSPropertyOp59
 70
     1
102
RTVSPropertyOp60
 70
     1
102
RTVSPropertyOp61
 70
     1
102
RTVSPropertyOp62
 70
     1
  0
XRECORD
  5
B0A
102
{ACAD_REACTORS
330
B09
102
}
330
B09
100
AcDbXrecord
280
     1
102
RTVSPost2010Prop28
280
     0
102
RTVSPost2010PropOp28
 70
     1
102
RTVSPost2010Prop29
280
     1
102
RTVSPost2010PropOp29
 70
     1
102
RTVSPost2010Prop30
280
     1
102
RTVSPost2010PropOp30
 70
     1
102
RTVSPost2010Prop31
280
     0
102
RTVSPost2010PropOp31
 70
     1
102
RTVSPost2010Prop32
280
     0
102
RTVSPost2010PropOp32
 70
     1
102
RTVSPost2010Prop33
280
     0
102
RTVSPost2010PropOp33
 70
     1
102
RTVSPost2010Prop34
280
     0
102
RTVSPost2010PropOp34
 70
     1
102
RTVSPost2010Prop35
280
     0
102
RTVSPost2010PropOp35
 70
     1
102
RTVSPost2010Prop36
280
     0
102
RTVSPost2010PropOp36
 70
     1
102
RTVSPost2010Prop37
 90
       50
102
RTVSPost2010PropOp37
 70
     1
102
RTVSPost2010Prop38
140
0.0
102
RTVSPost2010PropOp38
 70
     1
102
RTVSPost2010Prop39
140
1.0
102
RTVSPost2010PropOp39
 70
     1
102
RTVSPost2010Prop40
 90
        0
102
RTVSPost2010PropOp40
 70
     1
102
RTVSPost2010Prop41ColorIndex
 90
       18
102
RTVSPost2010Prop41ColorRGB
 90
        0
102
RTVSPost2010PropOp41
 70
     1
102
RTVSPost2010Prop42
 90
       50
102
RTVSPost2010PropOp42
 70
     1
102
RTVSPost2010Prop43
 90
        3
102
RTVSPost2010PropOp43
 70
     1
102
RTVSPost2010Prop44ColorIndex
 90
        5
102
RTVSPost2010Prop44ColorRGB
 90
      255
102
RTVSPost2010PropOp44
 70
     1
102
RTVSPost2010Prop45
280
     0
102
RTVSPost2010PropOp45
 70
     1
102
RTVSPost2010Prop46
 90
       50
102
RTVSPost2010PropOp46
 70
     1
102
RTVSPost2010Prop47
 90
       50
102
RTVSPost2010PropOp47
 70
     1
102
RTVSPost2010Prop48
 90
       50
102
RTVSPost2010PropOp48
 70
     1
102
RTVSPost2010Prop49
280
     0
102
RTVSPost2010PropOp49
 70
     1
102
RTVSPost2010Prop50
 90
       50
102
RTVSPost2010PropOp50
 70
     1
102
RTVSPost2010Prop51ColorIndex
 90
      256
102
RTVSPost2010Prop51ColorRGB
 90
-16777216
102
RTVSPost2010PropOp51
 70
     0
102
RTVSPost2010Prop52
140
1.0
102
RTVSPost2010PropOp52
 70
     0
102
RTVSPost2010Prop53
 90
        2
102
RTVSPost2010PropOp53
 70
     1
102
RTVSPost2010Prop54
  1
strokes_ogs.tif
102
RTVSPost2010PropOp54
 70
     1
102
RTVSPost2010Prop55
280
     0
102
RTVSPost2010PropOp55
 70
     1
102
RTVSPost2010Prop56
140
1.0
102
RTVSPost2010PropOp56
 70
     1
102
RTVSPost2010Prop57
140
1.0
102
RTVSPost2010PropOp57
 70
     1
102
RTVSPropertyOp0
 70
     1
102
RTVSPropertyOp1
 70
     1
102
RTVSPropertyOp2
 70
     1
102
RTVSPropertyOp3
 70
     1
102
RTVSPropertyOp4
 70
     1
102
RTVSPropertyOp5
 70
     1
102
RTVSPropertyOp6
 70
     1
102
RTVSPropertyOp7
 70
     1
102
RTVSPropertyOp8
 70
     1
102
RTVSPropertyOp9
 70
     1
102
RTVSPropertyOp10
 70
     1
102
RTVSPropertyOp11
 70
     1
102
RTVSPropertyOp12
 70
     1
102
RTVSPropertyOp13
 70
     1
102
RTVSPropertyOp14
 70
     1
102
RTVSPropertyOp15
 70
     1
102
RTVSPropertyOp16
 70
     1
102
RTVSPropertyOp17
 70
     1
102
RTVSPropertyOp18
 70
     1
102
RTVSPropertyOp19
 70
     1
102
RTVSPropertyOp20
 70
     1
102
RTVSPropertyOp21
 70
     1
102
RTVSPropertyOp22
 70
     1
102
RTVSPropertyOp23
 70
     1
102
RTVSPropertyOp24
 70
     1
102
RTVSPropertyOp25
 70
     1
102
RTVSPropertyOp26
 70
     1
102
RTVSPropertyOp27
 70
     1
102
RTVSPropertyOp28
 70
     1
102
RTVSPropertyOp29
 70
     1
102
RTVSPropertyOp30
 70
     1
102
RTVSPropertyOp31
 70
     1
102
RTVSPropertyOp32
 70
     1
102
RTVSPropertyOp33
 70
     1
102
RTVSPropertyOp34
 70
     1
102
RTVSPropertyOp35
 70
     1
102
RTVSPropertyOp36
 70
     1
102
RTVSPropertyOp37
 70
     1
102
RTVSPropertyOp38
 70
     1
102
RTVSPropertyOp39
 70
     1
102
RTVSPropertyOp40
 70
     1
102
RTVSPropertyOp41
 70
     1
102
RTVSPropertyOp42
 70
     1
102
RTVSPropertyOp43
 70
     1
102
RTVSPropertyOp44
 70
     1
102
RTVSPropertyOp45
 70
     1
102
RTVSPropertyOp46
 70
     1
102
RTVSPropertyOp47
 70
     1
102
RTVSPropertyOp48
 70
     1
102
RTVSPropertyOp49
 70
     1
102
RTVSPropertyOp50
 70
     1
102
RTVSPropertyOp51
 70
     0
102
RTVSPropertyOp52
 70
     0
102
RTVSPropertyOp53
 70
     1
102
RTVSPropertyOp54
 70
     1
102
RTVSPropertyOp55
 70
     1
102
RTVSPropertyOp56
 70
     1
102
RTVSPropertyOp57
 70
     1
102
RTVSPropertyOp58
 70
     1
102
RTVSPropertyOp59
 70
     1
102
RTVSPropertyOp60
 70
     1
102
RTVSPropertyOp61
 70
     1
102
RTVSPropertyOp62
 70
     1
  0
XRECORD
  5
AEE
102
{ACAD_REACTORS
330
AED
102
}
330
AED
100
AcDbXrecord
280
     1
102
RTVSPost2010Prop28
280
     0
102
RTVSPost2010PropOp28
 70
     1
102
RTVSPost2010Prop29
280
     1
102
RTVSPost2010PropOp29
 70
     1
102
RTVSPost2010Prop30
280
     1
102
RTVSPost2010PropOp30
 70
     1
102
RTVSPost2010Prop31
280
     0
102
RTVSPost2010PropOp31
 70
     1
102
RTVSPost2010Prop32
280
     0
102
RTVSPost2010PropOp32
 70
     1
102
RTVSPost2010Prop33
280
     0
102
RTVSPost2010PropOp33
 70
     1
102
RTVSPost2010Prop34
280
     0
102
RTVSPost2010PropOp34
 70
     1
102
RTVSPost2010Prop35
280
     0
102
RTVSPost2010PropOp35
 70
     1
102
RTVSPost2010Prop36
280
     0
102
RTVSPost2010PropOp36
 70
     1
102
RTVSPost2010Prop37
 90
       50
102
RTVSPost2010PropOp37
 70
     1
102
RTVSPost2010Prop38
140
0.0
102
RTVSPost2010PropOp38
 70
     1
102
RTVSPost2010Prop39
140
1.0
102
RTVSPost2010PropOp39
 70
     1
102
RTVSPost2010Prop40
 90
        0
102
RTVSPost2010PropOp40
 70
     1
102
RTVSPost2010Prop41ColorIndex
 90
       18
102
RTVSPost2010Prop41ColorRGB
 90
        0
102
RTVSPost2010PropOp41
 70
     1
102
RTVSPost2010Prop42
 90
       50
102
RTVSPost2010PropOp42
 70
     1
102
RTVSPost2010Prop43
 90
        3
102
RTVSPost2010PropOp43
 70
     1
102
RTVSPost2010Prop44ColorIndex
 90
        5
102
RTVSPost2010Prop44ColorRGB
 90
      255
102
RTVSPost2010PropOp44
 70
     1
102
RTVSPost2010Prop45
280
     0
102
RTVSPost2010PropOp45
 70
     1
102
RTVSPost2010Prop46
 90
       50
102
RTVSPost2010PropOp46
 70
     1
102
RTVSPost2010Prop47
 90
       50
102
RTVSPost2010PropOp47
 70
     1
102
RTVSPost2010Prop48
 90
       50
102
RTVSPost2010PropOp48
 70
     1
102
RTVSPost2010Prop49
280
     0
102
RTVSPost2010PropOp49
 70
     1
102
RTVSPost2010Prop50
 90
       50
102
RTVSPost2010PropOp50
 70
     1
102
RTVSPost2010Prop51ColorIndex
 90
      256
102
RTVSPost2010Prop51ColorRGB
 90
-16777216
102
RTVSPost2010PropOp51
 70
     0
102
RTVSPost2010Prop52
140
1.0
102
RTVSPost2010PropOp52
 70
     0
102
RTVSPost2010Prop53
 90
        2
102
RTVSPost2010PropOp53
 70
     1
102
RTVSPost2010Prop54
  1
strokes_ogs.tif
102
RTVSPost2010PropOp54
 70
     1
102
RTVSPost2010Prop55
280
     0
102
RTVSPost2010PropOp55
 70
     1
102
RTVSPost2010Prop56
140
1.0
102
RTVSPost2010PropOp56
 70
     1
102
RTVSPost2010Prop57
140
1.0
102
RTVSPost2010PropOp57
 70
     1
102
RTVSPropertyOp0
 70
     1
102
RTVSPropertyOp1
 70
     1
102
RTVSPropertyOp2
 70
     1
102
RTVSPropertyOp3
 70
     1
102
RTVSPropertyOp4
 70
     1
102
RTVSPropertyOp5
 70
     1
102
RTVSPropertyOp6
 70
     1
102
RTVSPropertyOp7
 70
     1
102
RTVSPropertyOp8
 70
     1
102
RTVSPropertyOp9
 70
     1
102
RTVSPropertyOp10
 70
     1
102
RTVSPropertyOp11
 70
     1
102
RTVSPropertyOp12
 70
     1
102
RTVSPropertyOp13
 70
     1
102
RTVSPropertyOp14
 70
     1
102
RTVSPropertyOp15
 70
     1
102
RTVSPropertyOp16
 70
     1
102
RTVSPropertyOp17
 70
     1
102
RTVSPropertyOp18
 70
     1
102
RTVSPropertyOp19
 70
     1
102
RTVSPropertyOp20
 70
     1
102
RTVSPropertyOp21
 70
     1
102
RTVSPropertyOp22
 70
     1
102
RTVSPropertyOp23
 70
     1
102
RTVSPropertyOp24
 70
     1
102
RTVSPropertyOp25
 70
     1
102
RTVSPropertyOp26
 70
     1
102
RTVSPropertyOp27
 70
     1
102
RTVSPropertyOp28
 70
     1
102
RTVSPropertyOp29
 70
     1
102
RTVSPropertyOp30
 70
     1
102
RTVSPropertyOp31
 70
     1
102
RTVSPropertyOp32
 70
     1
102
RTVSPropertyOp33
 70
     1
102
RTVSPropertyOp34
 70
     1
102
RTVSPropertyOp35
 70
     1
102
RTVSPropertyOp36
 70
     1
102
RTVSPropertyOp37
 70
     1
102
RTVSPropertyOp38
 70
     1
102
RTVSPropertyOp39
 70
     1
102
RTVSPropertyOp40
 70
     1
102
RTVSPropertyOp41
 70
     1
102
RTVSPropertyOp42
 70
     1
102
RTVSPropertyOp43
 70
     1
102
RTVSPropertyOp44
 70
     1
102
RTVSPropertyOp45
 70
     1
102
RTVSPropertyOp46
 70
     1
102
RTVSPropertyOp47
 70
     1
102
RTVSPropertyOp48
 70
     1
102
RTVSPropertyOp49
 70
     1
102
RTVSPropertyOp50
 70
     1
102
RTVSPropertyOp51
 70
     0
102
RTVSPropertyOp52
 70
     0
102
RTVSPropertyOp53
 70
     1
102
RTVSPropertyOp54
 70
     1
102
RTVSPropertyOp55
 70
     1
102
RTVSPropertyOp56
 70
     1
102
RTVSPropertyOp57
 70
     1
102
RTVSPropertyOp58
 70
     1
102
RTVSPropertyOp59
 70
     1
102
RTVSPropertyOp60
 70
     1
102
RTVSPropertyOp61
 70
     1
102
RTVSPropertyOp62
 70
     1
  0
XRECORD
  5
AF0
102
{ACAD_REACTORS
330
AEF
102
}
330
AEF
100
AcDbXrecord
280
     1
102
RTVSPost2010Prop28
280
     0
102
RTVSPost2010PropOp28
 70
     1
102
RTVSPost2010Prop29
280
     1
102
RTVSPost2010PropOp29
 70
     1
102
RTVSPost2010Prop30
280
     1
102
RTVSPost2010PropOp30
 70
     1
102
RTVSPost2010Prop31
280
     0
102
RTVSPost2010PropOp31
 70
     1
102
RTVSPost2010Prop32
280
     0
102
RTVSPost2010PropOp32
 70
     1
102
RTVSPost2010Prop33
280
     0
102
RTVSPost2010PropOp33
 70
     1
102
RTVSPost2010Prop34
280
     0
102
RTVSPost2010PropOp34
 70
     1
102
RTVSPost2010Prop35
280
     0
102
RTVSPost2010PropOp35
 70
     1
102
RTVSPost2010Prop36
280
     0
102
RTVSPost2010PropOp36
 70
     1
102
RTVSPost2010Prop37
 90
       50
102
RTVSPost2010PropOp37
 70
     1
102
RTVSPost2010Prop38
140
0.0
102
RTVSPost2010PropOp38
 70
     1
102
RTVSPost2010Prop39
140
1.0
102
RTVSPost2010PropOp39
 70
     1
102
RTVSPost2010Prop40
 90
        0
102
RTVSPost2010PropOp40
 70
     1
102
RTVSPost2010Prop41ColorIndex
 90
       18
102
RTVSPost2010Prop41ColorRGB
 90
        0
102
RTVSPost2010PropOp41
 70
     1
102
RTVSPost2010Prop42
 90
       50
102
RTVSPost2010PropOp42
 70
     1
102
RTVSPost2010Prop43
 90
        3
102
RTVSPost2010PropOp43
 70
     1
102
RTVSPost2010Prop44ColorIndex
 90
        5
102
RTVSPost2010Prop44ColorRGB
 90
      255
102
RTVSPost2010PropOp44
 70
     1
102
RTVSPost2010Prop45
280
     0
102
RTVSPost2010PropOp45
 70
     1
102
RTVSPost2010Prop46
 90
       50
102
RTVSPost2010PropOp46
 70
     1
102
RTVSPost2010Prop47
 90
       50
102
RTVSPost2010PropOp47
 70
     1
102
RTVSPost2010Prop48
 90
       50
102
RTVSPost2010PropOp48
 70
     1
102
RTVSPost2010Prop49
280
     0
102
RTVSPost2010PropOp49
 70
     1
102
RTVSPost2010Prop50
 90
       50
102
RTVSPost2010PropOp50
 70
     1
102
RTVSPost2010Prop51ColorIndex
 90
      256
102
RTVSPost2010Prop51ColorRGB
 90
-16777216
102
RTVSPost2010PropOp51
 70
     0
102
RTVSPost2010Prop52
140
1.0
102
RTVSPost2010PropOp52
 70
     0
102
RTVSPost2010Prop53
 90
        2
102
RTVSPost2010PropOp53
 70
     1
102
RTVSPost2010Prop54
  1
strokes_ogs.tif
102
RTVSPost2010PropOp54
 70
     1
102
RTVSPost2010Prop55
280
     0
102
RTVSPost2010PropOp55
 70
     1
102
RTVSPost2010Prop56
140
1.0
102
RTVSPost2010PropOp56
 70
     1
102
RTVSPost2010Prop57
140
1.0
102
RTVSPost2010PropOp57
 70
     1
102
RTVSPropertyOp0
 70
     1
102
RTVSPropertyOp1
 70
     1
102
RTVSPropertyOp2
 70
     1
102
RTVSPropertyOp3
 70
     1
102
RTVSPropertyOp4
 70
     1
102
RTVSPropertyOp5
 70
     1
102
RTVSPropertyOp6
 70
     1
102
RTVSPropertyOp7
 70
     1
102
RTVSPropertyOp8
 70
     1
102
RTVSPropertyOp9
 70
     1
102
RTVSPropertyOp10
 70
     1
102
RTVSPropertyOp11
 70
     1
102
RTVSPropertyOp12
 70
     1
102
RTVSPropertyOp13
 70
     1
102
RTVSPropertyOp14
 70
     1
102
RTVSPropertyOp15
 70
     1
102
RTVSPropertyOp16
 70
     1
102
RTVSPropertyOp17
 70
     1
102
RTVSPropertyOp18
 70
     1
102
RTVSPropertyOp19
 70
     1
102
RTVSPropertyOp20
 70
     1
102
RTVSPropertyOp21
 70
     1
102
RTVSPropertyOp22
 70
     1
102
RTVSPropertyOp23
 70
     1
102
RTVSPropertyOp24
 70
     1
102
RTVSPropertyOp25
 70
     1
102
RTVSPropertyOp26
 70
     1
102
RTVSPropertyOp27
 70
     1
102
RTVSPropertyOp28
 70
     1
102
RTVSPropertyOp29
 70
     1
102
RTVSPropertyOp30
 70
     1
102
RTVSPropertyOp31
 70
     1
102
RTVSPropertyOp32
 70
     1
102
RTVSPropertyOp33
 70
     1
102
RTVSPropertyOp34
 70
     1
102
RTVSPropertyOp35
 70
     1
102
RTVSPropertyOp36
 70
     1
102
RTVSPropertyOp37
 70
     1
102
RTVSPropertyOp38
 70
     1
102
RTVSPropertyOp39
 70
     1
102
RTVSPropertyOp40
 70
     1
102
RTVSPropertyOp41
 70
     1
102
RTVSPropertyOp42
 70
     1
102
RTVSPropertyOp43
 70
     1
102
RTVSPropertyOp44
 70
     1
102
RTVSPropertyOp45
 70
     1
102
RTVSPropertyOp46
 70
     1
102
RTVSPropertyOp47
 70
     1
102
RTVSPropertyOp48
 70
     1
102
RTVSPropertyOp49
 70
     1
102
RTVSPropertyOp50
 70
     1
102
RTVSPropertyOp51
 70
     0
102
RTVSPropertyOp52
 70
     0
102
RTVSPropertyOp53
 70
     1
102
RTVSPropertyOp54
 70
     1
102
RTVSPropertyOp55
 70
     1
102
RTVSPropertyOp56
 70
     1
102
RTVSPropertyOp57
 70
     1
102
RTVSPropertyOp58
 70
     1
102
RTVSPropertyOp59
 70
     1
102
RTVSPropertyOp60
 70
     1
102
RTVSPropertyOp61
 70
     1
102
RTVSPropertyOp62
 70
     1
  0
XRECORD
  5
AF2
102
{ACAD_REACTORS
330
AF1
102
}
330
AF1
100
AcDbXrecord
280
     1
102
RTVSPost2010Prop28
280
     0
102
RTVSPost2010PropOp28
 70
     1
102
RTVSPost2010Prop29
280
     1
102
RTVSPost2010PropOp29
 70
     1
102
RTVSPost2010Prop30
280
     1
102
RTVSPost2010PropOp30
 70
     1
102
RTVSPost2010Prop31
280
     0
102
RTVSPost2010PropOp31
 70
     1
102
RTVSPost2010Prop32
280
     0
102
RTVSPost2010PropOp32
 70
     1
102
RTVSPost2010Prop33
280
     0
102
RTVSPost2010PropOp33
 70
     1
102
RTVSPost2010Prop34
280
     0
102
RTVSPost2010PropOp34
 70
     1
102
RTVSPost2010Prop35
280
     0
102
RTVSPost2010PropOp35
 70
     1
102
RTVSPost2010Prop36
280
     0
102
RTVSPost2010PropOp36
 70
     1
102
RTVSPost2010Prop37
 90
       50
102
RTVSPost2010PropOp37
 70
     1
102
RTVSPost2010Prop38
140
0.0
102
RTVSPost2010PropOp38
 70
     1
102
RTVSPost2010Prop39
140
1.0
102
RTVSPost2010PropOp39
 70
     1
102
RTVSPost2010Prop40
 90
        0
102
RTVSPost2010PropOp40
 70
     1
102
RTVSPost2010Prop41ColorIndex
 90
       18
102
RTVSPost2010Prop41ColorRGB
 90
        0
102
RTVSPost2010PropOp41
 70
     1
102
RTVSPost2010Prop42
 90
       50
102
RTVSPost2010PropOp42
 70
     1
102
RTVSPost2010Prop43
 90
        3
102
RTVSPost2010PropOp43
 70
     1
102
RTVSPost2010Prop44ColorIndex
 90
        5
102
RTVSPost2010Prop44ColorRGB
 90
      255
102
RTVSPost2010PropOp44
 70
     1
102
RTVSPost2010Prop45
280
     0
102
RTVSPost2010PropOp45
 70
     1
102
RTVSPost2010Prop46
 90
       50
102
RTVSPost2010PropOp46
 70
     1
102
RTVSPost2010Prop47
 90
       50
102
RTVSPost2010PropOp47
 70
     1
102
RTVSPost2010Prop48
 90
       50
102
RTVSPost2010PropOp48
 70
     1
102
RTVSPost2010Prop49
280
     0
102
RTVSPost2010PropOp49
 70
     1
102
RTVSPost2010Prop50
 90
       50
102
RTVSPost2010PropOp50
 70
     1
102
RTVSPost2010Prop51ColorIndex
 90
      256
102
RTVSPost2010Prop51ColorRGB
 90
-16777216
102
RTVSPost2010PropOp51
 70
     0
102
RTVSPost2010Prop52
140
1.0
102
RTVSPost2010PropOp52
 70
     0
102
RTVSPost2010Prop53
 90
        2
102
RTVSPost2010PropOp53
 70
     1
102
RTVSPost2010Prop54
  1
strokes_ogs.tif
102
RTVSPost2010PropOp54
 70
     1
102
RTVSPost2010Prop55
280
     0
102
RTVSPost2010PropOp55
 70
     1
102
RTVSPost2010Prop56
140
1.0
102
RTVSPost2010PropOp56
 70
     1
102
RTVSPost2010Prop57
140
1.0
102
RTVSPost2010PropOp57
 70
     1
102
RTVSPropertyOp0
 70
     1
102
RTVSPropertyOp1
 70
     1
102
RTVSPropertyOp2
 70
     1
102
RTVSPropertyOp3
 70
     1
102
RTVSPropertyOp4
 70
     1
102
RTVSPropertyOp5
 70
     1
102
RTVSPropertyOp6
 70
     1
102
RTVSPropertyOp7
 70
     1
102
RTVSPropertyOp8
 70
     1
102
RTVSPropertyOp9
 70
     1
102
RTVSPropertyOp10
 70
     1
102
RTVSPropertyOp11
 70
     1
102
RTVSPropertyOp12
 70
     1
102
RTVSPropertyOp13
 70
     1
102
RTVSPropertyOp14
 70
     1
102
RTVSPropertyOp15
 70
     1
102
RTVSPropertyOp16
 70
     1
102
RTVSPropertyOp17
 70
     1
102
RTVSPropertyOp18
 70
     1
102
RTVSPropertyOp19
 70
     1
102
RTVSPropertyOp20
 70
     1
102
RTVSPropertyOp21
 70
     1
102
RTVSPropertyOp22
 70
     1
102
RTVSPropertyOp23
 70
     1
102
RTVSPropertyOp24
 70
     1
102
RTVSPropertyOp25
 70
     1
102
RTVSPropertyOp26
 70
     1
102
RTVSPropertyOp27
 70
     1
102
RTVSPropertyOp28
 70
     1
102
RTVSPropertyOp29
 70
     1
102
RTVSPropertyOp30
 70
     1
102
RTVSPropertyOp31
 70
     1
102
RTVSPropertyOp32
 70
     1
102
RTVSPropertyOp33
 70
     1
102
RTVSPropertyOp34
 70
     1
102
RTVSPropertyOp35
 70
     1
102
RTVSPropertyOp36
 70
     1
102
RTVSPropertyOp37
 70
     1
102
RTVSPropertyOp38
 70
     1
102
RTVSPropertyOp39
 70
     1
102
RTVSPropertyOp40
 70
     1
102
RTVSPropertyOp41
 70
     1
102
RTVSPropertyOp42
 70
     1
102
RTVSPropertyOp43
 70
     1
102
RTVSPropertyOp44
 70
     1
102
RTVSPropertyOp45
 70
     1
102
RTVSPropertyOp46
 70
     1
102
RTVSPropertyOp47
 70
     1
102
RTVSPropertyOp48
 70
     1
102
RTVSPropertyOp49
 70
     1
102
RTVSPropertyOp50
 70
     1
102
RTVSPropertyOp51
 70
     0
102
RTVSPropertyOp52
 70
     0
102
RTVSPropertyOp53
 70
     1
102
RTVSPropertyOp54
 70
     1
102
RTVSPropertyOp55
 70
     1
102
RTVSPropertyOp56
 70
     1
102
RTVSPropertyOp57
 70
     1
102
RTVSPropertyOp58
 70
     1
102
RTVSPropertyOp59
 70
     1
102
RTVSPropertyOp60
 70
     1
102
RTVSPropertyOp61
 70
     1
102
RTVSPropertyOp62
 70
     1
  0
XRECORD
  5
AF4
102
{ACAD_REACTORS
330
AF3
102
}
330
AF3
100
AcDbXrecord
280
     1
102
RTVSPost2010Prop28
280
     0
102
RTVSPost2010PropOp28
 70
     1
102
RTVSPost2010Prop29
280
     1
102
RTVSPost2010PropOp29
 70
     1
102
RTVSPost2010Prop30
280
     1
102
RTVSPost2010PropOp30
 70
     1
102
RTVSPost2010Prop31
280
     0
102
RTVSPost2010PropOp31
 70
     1
102
RTVSPost2010Prop32
280
     0
102
RTVSPost2010PropOp32
 70
     1
102
RTVSPost2010Prop33
280
     0
102
RTVSPost2010PropOp33
 70
     1
102
RTVSPost2010Prop34
280
     0
102
RTVSPost2010PropOp34
 70
     1
102
RTVSPost2010Prop35
280
     0
102
RTVSPost2010PropOp35
 70
     1
102
RTVSPost2010Prop36
280
     0
102
RTVSPost2010PropOp36
 70
     1
102
RTVSPost2010Prop37
 90
       50
102
RTVSPost2010PropOp37
 70
     1
102
RTVSPost2010Prop38
140
0.0
102
RTVSPost2010PropOp38
 70
     1
102
RTVSPost2010Prop39
140
1.0
102
RTVSPost2010PropOp39
 70
     1
102
RTVSPost2010Prop40
 90
        0
102
RTVSPost2010PropOp40
 70
     1
102
RTVSPost2010Prop41ColorIndex
 90
       18
102
RTVSPost2010Prop41ColorRGB
 90
        0
102
RTVSPost2010PropOp41
 70
     1
102
RTVSPost2010Prop42
 90
       50
102
RTVSPost2010PropOp42
 70
     1
102
RTVSPost2010Prop43
 90
        3
102
RTVSPost2010PropOp43
 70
     1
102
RTVSPost2010Prop44ColorIndex
 90
        5
102
RTVSPost2010Prop44ColorRGB
 90
      255
102
RTVSPost2010PropOp44
 70
     1
102
RTVSPost2010Prop45
280
     0
102
RTVSPost2010PropOp45
 70
     1
102
RTVSPost2010Prop46
 90
       50
102
RTVSPost2010PropOp46
 70
     1
102
RTVSPost2010Prop47
 90
       50
102
RTVSPost2010PropOp47
 70
     1
102
RTVSPost2010Prop48
 90
       50
102
RTVSPost2010PropOp48
 70
     1
102
RTVSPost2010Prop49
280
     0
102
RTVSPost2010PropOp49
 70
     1
102
RTVSPost2010Prop50
 90
       50
102
RTVSPost2010PropOp50
 70
     1
102
RTVSPost2010Prop51ColorIndex
 90
      256
102
RTVSPost2010Prop51ColorRGB
 90
-16777216
102
RTVSPost2010PropOp51
 70
     0
102
RTVSPost2010Prop52
140
1.0
102
RTVSPost2010PropOp52
 70
     0
102
RTVSPost2010Prop53
 90
        2
102
RTVSPost2010PropOp53
 70
     1
102
RTVSPost2010Prop54
  1
strokes_ogs.tif
102
RTVSPost2010PropOp54
 70
     1
102
RTVSPost2010Prop55
280
     0
102
RTVSPost2010PropOp55
 70
     1
102
RTVSPost2010Prop56
140
1.0
102
RTVSPost2010PropOp56
 70
     1
102
RTVSPost2010Prop57
140
1.0
102
RTVSPost2010PropOp57
 70
     1
102
RTVSPropertyOp0
 70
     1
102
RTVSPropertyOp1
 70
     1
102
RTVSPropertyOp2
 70
     1
102
RTVSPropertyOp3
 70
     1
102
RTVSPropertyOp4
 70
     1
102
RTVSPropertyOp5
 70
     1
102
RTVSPropertyOp6
 70
     1
102
RTVSPropertyOp7
 70
     1
102
RTVSPropertyOp8
 70
     1
102
RTVSPropertyOp9
 70
     1
102
RTVSPropertyOp10
 70
     1
102
RTVSPropertyOp11
 70
     1
102
RTVSPropertyOp12
 70
     1
102
RTVSPropertyOp13
 70
     1
102
RTVSPropertyOp14
 70
     1
102
RTVSPropertyOp15
 70
     1
102
RTVSPropertyOp16
 70
     1
102
RTVSPropertyOp17
 70
     1
102
RTVSPropertyOp18
 70
     1
102
RTVSPropertyOp19
 70
     1
102
RTVSPropertyOp20
 70
     1
102
RTVSPropertyOp21
 70
     1
102
RTVSPropertyOp22
 70
     1
102
RTVSPropertyOp23
 70
     1
102
RTVSPropertyOp24
 70
     1
102
RTVSPropertyOp25
 70
     1
102
RTVSPropertyOp26
 70
     1
102
RTVSPropertyOp27
 70
     1
102
RTVSPropertyOp28
 70
     1
102
RTVSPropertyOp29
 70
     1
102
RTVSPropertyOp30
 70
     1
102
RTVSPropertyOp31
 70
     1
102
RTVSPropertyOp32
 70
     1
102
RTVSPropertyOp33
 70
     1
102
RTVSPropertyOp34
 70
     1
102
RTVSPropertyOp35
 70
     1
102
RTVSPropertyOp36
 70
     1
102
RTVSPropertyOp37
 70
     1
102
RTVSPropertyOp38
 70
     1
102
RTVSPropertyOp39
 70
     1
102
RTVSPropertyOp40
 70
     1
102
RTVSPropertyOp41
 70
     1
102
RTVSPropertyOp42
 70
     1
102
RTVSPropertyOp43
 70
     1
102
RTVSPropertyOp44
 70
     1
102
RTVSPropertyOp45
 70
     1
102
RTVSPropertyOp46
 70
     1
102
RTVSPropertyOp47
 70
     1
102
RTVSPropertyOp48
 70
     1
102
RTVSPropertyOp49
 70
     1
102
RTVSPropertyOp50
 70
     1
102
RTVSPropertyOp51
 70
     0
102
RTVSPropertyOp52
 70
     0
102
RTVSPropertyOp53
 70
     1
102
RTVSPropertyOp54
 70
     1
102
RTVSPropertyOp55
 70
     1
102
RTVSPropertyOp56
 70
     1
102
RTVSPropertyOp57
 70
     1
102
RTVSPropertyOp58
 70
     1
102
RTVSPropertyOp59
 70
     1
102
RTVSPropertyOp60
 70
     1
102
RTVSPropertyOp61
 70
     1
102
RTVSPropertyOp62
 70
     1
  0
XRECORD
  5
AFC
102
{ACAD_REACTORS
330
AFB
102
}
330
AFB
100
AcDbXrecord
280
     1
102
RTVSPost2010Prop28
280
     0
102
RTVSPost2010PropOp28
 70
     1
102
RTVSPost2010Prop29
280
     1
102
RTVSPost2010PropOp29
 70
     1
102
RTVSPost2010Prop30
280
     1
102
RTVSPost2010PropOp30
 70
     1
102
RTVSPost2010Prop31
280
     0
102
RTVSPost2010PropOp31
 70
     1
102
RTVSPost2010Prop32
280
     0
102
RTVSPost2010PropOp32
 70
     1
102
RTVSPost2010Prop33
280
     0
102
RTVSPost2010PropOp33
 70
     1
102
RTVSPost2010Prop34
280
     0
102
RTVSPost2010PropOp34
 70
     1
102
RTVSPost2010Prop35
280
     0
102
RTVSPost2010PropOp35
 70
     1
102
RTVSPost2010Prop36
280
     0
102
RTVSPost2010PropOp36
 70
     1
102
RTVSPost2010Prop37
 90
       50
102
RTVSPost2010PropOp37
 70
     1
102
RTVSPost2010Prop38
140
0.0
102
RTVSPost2010PropOp38
 70
     1
102
RTVSPost2010Prop39
140
1.0
102
RTVSPost2010PropOp39
 70
     1
102
RTVSPost2010Prop40
 90
        0
102
RTVSPost2010PropOp40
 70
     1
102
RTVSPost2010Prop41ColorIndex
 90
       18
102
RTVSPost2010Prop41ColorRGB
 90
        0
102
RTVSPost2010PropOp41
 70
     1
102
RTVSPost2010Prop42
 90
       50
102
RTVSPost2010PropOp42
 70
     1
102
RTVSPost2010Prop43
 90
        3
102
RTVSPost2010PropOp43
 70
     1
102
RTVSPost2010Prop44ColorIndex
 90
        5
102
RTVSPost2010Prop44ColorRGB
 90
      255
102
RTVSPost2010PropOp44
 70
     1
102
RTVSPost2010Prop45
280
     0
102
RTVSPost2010PropOp45
 70
     1
102
RTVSPost2010Prop46
 90
       50
102
RTVSPost2010PropOp46
 70
     1
102
RTVSPost2010Prop47
 90
       50
102
RTVSPost2010PropOp47
 70
     1
102
RTVSPost2010Prop48
 90
       50
102
RTVSPost2010PropOp48
 70
     1
102
RTVSPost2010Prop49
280
     0
102
RTVSPost2010PropOp49
 70
     1
102
RTVSPost2010Prop50
 90
       50
102
RTVSPost2010PropOp50
 70
     1
102
RTVSPost2010Prop51ColorIndex
 90
      256
102
RTVSPost2010Prop51ColorRGB
 90
-16777216
102
RTVSPost2010PropOp51
 70
     0
102
RTVSPost2010Prop52
140
1.0
102
RTVSPost2010PropOp52
 70
     0
102
RTVSPost2010Prop53
 90
        2
102
RTVSPost2010PropOp53
 70
     1
102
RTVSPost2010Prop54
  1
strokes_ogs.tif
102
RTVSPost2010PropOp54
 70
     1
102
RTVSPost2010Prop55
280
     0
102
RTVSPost2010PropOp55
 70
     1
102
RTVSPost2010Prop56
140
1.0
102
RTVSPost2010PropOp56
 70
     1
102
RTVSPost2010Prop57
140
1.0
102
RTVSPost2010PropOp57
 70
     1
102
RTVSPropertyOp0
 70
     1
102
RTVSPropertyOp1
 70
     1
102
RTVSPropertyOp2
 70
     1
102
RTVSPropertyOp3
 70
     1
102
RTVSPropertyOp4
 70
     1
102
RTVSPropertyOp5
 70
     1
102
RTVSPropertyOp6
 70
     1
102
RTVSPropertyOp7
 70
     1
102
RTVSPropertyOp8
 70
     1
102
RTVSPropertyOp9
 70
     1
102
RTVSPropertyOp10
 70
     1
102
RTVSPropertyOp11
 70
     1
102
RTVSPropertyOp12
 70
     1
102
RTVSPropertyOp13
 70
     1
102
RTVSPropertyOp14
 70
     1
102
RTVSPropertyOp15
 70
     1
102
RTVSPropertyOp16
 70
     1
102
RTVSPropertyOp17
 70
     1
102
RTVSPropertyOp18
 70
     1
102
RTVSPropertyOp19
 70
     1
102
RTVSPropertyOp20
 70
     1
102
RTVSPropertyOp21
 70
     1
102
RTVSPropertyOp22
 70
     1
102
RTVSPropertyOp23
 70
     1
102
RTVSPropertyOp24
 70
     1
102
RTVSPropertyOp25
 70
     1
102
RTVSPropertyOp26
 70
     1
102
RTVSPropertyOp27
 70
     1
102
RTVSPropertyOp28
 70
     1
102
RTVSPropertyOp29
 70
     1
102
RTVSPropertyOp30
 70
     1
102
RTVSPropertyOp31
 70
     1
102
RTVSPropertyOp32
 70
     1
102
RTVSPropertyOp33
 70
     1
102
RTVSPropertyOp34
 70
     1
102
RTVSPropertyOp35
 70
     1
102
RTVSPropertyOp36
 70
     1
102
RTVSPropertyOp37
 70
     1
102
RTVSPropertyOp38
 70
     1
102
RTVSPropertyOp39
 70
     1
102
RTVSPropertyOp40
 70
     1
102
RTVSPropertyOp41
 70
     1
102
RTVSPropertyOp42
 70
     1
102
RTVSPropertyOp43
 70
     1
102
RTVSPropertyOp44
 70
     1
102
RTVSPropertyOp45
 70
     1
102
RTVSPropertyOp46
 70
     1
102
RTVSPropertyOp47
 70
     1
102
RTVSPropertyOp48
 70
     1
102
RTVSPropertyOp49
 70
     1
102
RTVSPropertyOp50
 70
     1
102
RTVSPropertyOp51
 70
     0
102
RTVSPropertyOp52
 70
     0
102
RTVSPropertyOp53
 70
     1
102
RTVSPropertyOp54
 70
     1
102
RTVSPropertyOp55
 70
     1
102
RTVSPropertyOp56
 70
     1
102
RTVSPropertyOp57
 70
     1
102
RTVSPropertyOp58
 70
     1
102
RTVSPropertyOp59
 70
     1
102
RTVSPropertyOp60
 70
     1
102
RTVSPropertyOp61
 70
     1
102
RTVSPropertyOp62
 70
     1
  0
XRECORD
  5
B18
102
{ACAD_REACTORS
330
B17
102
}
330
B17
100
AcDbXrecord
280
     1
102
RTVSPost2010Prop28
280
     0
102
RTVSPost2010PropOp28
 70
     0
102
RTVSPost2010Prop29
280
     1
102
RTVSPost2010PropOp29
 70
     0
102
RTVSPost2010Prop30
280
     1
102
RTVSPost2010PropOp30
 70
     0
102
RTVSPost2010Prop31
280
     0
102
RTVSPost2010PropOp31
 70
     0
102
RTVSPost2010Prop32
280
     0
102
RTVSPost2010PropOp32
 70
     0
102
RTVSPost2010Prop33
280
     0
102
RTVSPost2010PropOp33
 70
     0
102
RTVSPost2010Prop34
280
     0
102
RTVSPost2010PropOp34
 70
     0
102
RTVSPost2010Prop35
280
     0
102
RTVSPost2010PropOp35
 70
     0
102
RTVSPost2010Prop36
280
     0
102
RTVSPost2010PropOp36
 70
     0
102
RTVSPost2010Prop37
 90
       50
102
RTVSPost2010PropOp37
 70
     0
102
RTVSPost2010Prop38
140
0.0
102
RTVSPost2010PropOp38
 70
     0
102
RTVSPost2010Prop39
140
1.0
102
RTVSPost2010PropOp39
 70
     0
102
RTVSPost2010Prop40
 90
        0
102
RTVSPost2010PropOp40
 70
     0
102
RTVSPost2010Prop41ColorIndex
 90
       18
102
RTVSPost2010Prop41ColorRGB
 90
        0
102
RTVSPost2010PropOp41
 70
     0
102
RTVSPost2010Prop42
 90
       50
102
RTVSPost2010PropOp42
 70
     0
102
RTVSPost2010Prop43
 90
        3
102
RTVSPost2010PropOp43
 70
     0
102
RTVSPost2010Prop44ColorIndex
 90
        5
102
RTVSPost2010Prop44ColorRGB
 90
      255
102
RTVSPost2010PropOp44
 70
     0
102
RTVSPost2010Prop45
280
     0
102
RTVSPost2010PropOp45
 70
     0
102
RTVSPost2010Prop46
 90
       50
102
RTVSPost2010PropOp46
 70
     0
102
RTVSPost2010Prop47
 90
       50
102
RTVSPost2010PropOp47
 70
     0
102
RTVSPost2010Prop48
 90
       50
102
RTVSPost2010PropOp48
 70
     0
102
RTVSPost2010Prop49
280
     0
102
RTVSPost2010PropOp49
 70
     0
102
RTVSPost2010Prop50
 90
       50
102
RTVSPost2010PropOp50
 70
     0
102
RTVSPost2010Prop51ColorIndex
 90
      256
102
RTVSPost2010Prop51ColorRGB
 90
-16777216
102
RTVSPost2010PropOp51
 70
     0
102
RTVSPost2010Prop52
140
1.0
102
RTVSPost2010PropOp52
 70
     0
102
RTVSPost2010Prop53
 90
        2
102
RTVSPost2010PropOp53
 70
     0
102
RTVSPost2010Prop54
  1
strokes_ogs.tif
102
RTVSPost2010PropOp54
 70
     0
102
RTVSPost2010Prop55
280
     0
102
RTVSPost2010PropOp55
 70
     0
102
RTVSPost2010Prop56
140
1.0
102
RTVSPost2010PropOp56
 70
     0
102
RTVSPost2010Prop57
140
1.0
102
RTVSPost2010PropOp57
 70
     0
102
RTVSPropertyOp0
 70
     0
102
RTVSPropertyOp1
 70
     0
102
RTVSPropertyOp2
 70
     0
102
RTVSPropertyOp3
 70
     0
102
RTVSPropertyOp4
 70
     0
102
RTVSPropertyOp5
 70
     0
102
RTVSPropertyOp6
 70
     0
102
RTVSPropertyOp7
 70
     0
102
RTVSPropertyOp8
 70
     0
102
RTVSPropertyOp9
 70
     0
102
RTVSPropertyOp10
 70
     0
102
RTVSPropertyOp11
 70
     0
102
RTVSPropertyOp12
 70
     0
102
RTVSPropertyOp13
 70
     0
102
RTVSPropertyOp14
 70
     2
102
RTVSPropertyOp15
 70
     0
102
RTVSPropertyOp16
 70
     0
102
RTVSPropertyOp17
 70
     0
102
RTVSPropertyOp18
 70
     0
102
RTVSPropertyOp19
 70
     0
102
RTVSPropertyOp20
 70
     0
102
RTVSPropertyOp21
 70
     0
102
RTVSPropertyOp22
 70
     0
102
RTVSPropertyOp23
 70
     0
102
RTVSPropertyOp24
 70
     0
102
RTVSPropertyOp25
 70
     0
102
RTVSPropertyOp26
 70
     0
102
RTVSPropertyOp27
 70
     0
102
RTVSPropertyOp28
 70
     0
102
RTVSPropertyOp29
 70
     0
102
RTVSPropertyOp30
 70
     0
102
RTVSPropertyOp31
 70
     0
102
RTVSPropertyOp32
 70
     0
102
RTVSPropertyOp33
 70
     0
102
RTVSPropertyOp34
 70
     0
102
RTVSPropertyOp35
 70
     0
102
RTVSPropertyOp36
 70
     0
102
RTVSPropertyOp37
 70
     0
102
RTVSPropertyOp38
 70
     0
102
RTVSPropertyOp39
 70
     0
102
RTVSPropertyOp40
 70
     0
102
RTVSPropertyOp41
 70
     0
102
RTVSPropertyOp42
 70
     0
102
RTVSPropertyOp43
 70
     0
102
RTVSPropertyOp44
 70
     0
102
RTVSPropertyOp45
 70
     0
102
RTVSPropertyOp46
 70
     0
102
RTVSPropertyOp47
 70
     0
102
RTVSPropertyOp48
 70
     0
102
RTVSPropertyOp49
 70
     0
102
RTVSPropertyOp50
 70
     0
102
RTVSPropertyOp51
 70
     0
102
RTVSPropertyOp52
 70
     0
102
RTVSPropertyOp53
 70
     0
102
RTVSPropertyOp54
 70
     0
102
RTVSPropertyOp55
 70
     0
102
RTVSPropertyOp56
 70
     0
102
RTVSPropertyOp57
 70
     0
102
RTVSPropertyOp58
 70
     1
102
RTVSPropertyOp59
 70
     1
102
RTVSPropertyOp60
 70
     1
102
RTVSPropertyOp61
 70
     1
102
RTVSPropertyOp62
 70
     1
  0
XRECORD
  5
B08
102
{ACAD_REACTORS
330
B07
102
}
330
B07
100
AcDbXrecord
280
     1
102
RTVSPost2010Prop28
280
     0
102
RTVSPost2010PropOp28
 70
     1
102
RTVSPost2010Prop29
280
     1
102
RTVSPost2010PropOp29
 70
     1
102
RTVSPost2010Prop30
280
     1
102
RTVSPost2010PropOp30
 70
     1
102
RTVSPost2010Prop31
280
     0
102
RTVSPost2010PropOp31
 70
     1
102
RTVSPost2010Prop32
280
     0
102
RTVSPost2010PropOp32
 70
     1
102
RTVSPost2010Prop33
280
     0
102
RTVSPost2010PropOp33
 70
     1
102
RTVSPost2010Prop34
280
     0
102
RTVSPost2010PropOp34
 70
     1
102
RTVSPost2010Prop35
280
     0
102
RTVSPost2010PropOp35
 70
     1
102
RTVSPost2010Prop36
280
     0
102
RTVSPost2010PropOp36
 70
     1
102
RTVSPost2010Prop37
 90
       50
102
RTVSPost2010PropOp37
 70
     1
102
RTVSPost2010Prop38
140
0.0
102
RTVSPost2010PropOp38
 70
     1
102
RTVSPost2010Prop39
140
1.0
102
RTVSPost2010PropOp39
 70
     1
102
RTVSPost2010Prop40
 90
        0
102
RTVSPost2010PropOp40
 70
     1
102
RTVSPost2010Prop41ColorIndex
 90
       18
102
RTVSPost2010Prop41ColorRGB
 90
        0
102
RTVSPost2010PropOp41
 70
     1
102
RTVSPost2010Prop42
 90
       50
102
RTVSPost2010PropOp42
 70
     1
102
RTVSPost2010Prop43
 90
        3
102
RTVSPost2010PropOp43
 70
     1
102
RTVSPost2010Prop44ColorIndex
 90
        5
102
RTVSPost2010Prop44ColorRGB
 90
      255
102
RTVSPost2010PropOp44
 70
     1
102
RTVSPost2010Prop45
280
     0
102
RTVSPost2010PropOp45
 70
     1
102
RTVSPost2010Prop46
 90
       50
102
RTVSPost2010PropOp46
 70
     1
102
RTVSPost2010Prop47
 90
       50
102
RTVSPost2010PropOp47
 70
     1
102
RTVSPost2010Prop48
 90
       50
102
RTVSPost2010PropOp48
 70
     1
102
RTVSPost2010Prop49
280
     0
102
RTVSPost2010PropOp49
 70
     1
102
RTVSPost2010Prop50
 90
       50
102
RTVSPost2010PropOp50
 70
     1
102
RTVSPost2010Prop51ColorIndex
 90
      256
102
RTVSPost2010Prop51ColorRGB
 90
-16777216
102
RTVSPost2010PropOp51
 70
     0
102
RTVSPost2010Prop52
140
1.0
102
RTVSPost2010PropOp52
 70
     0
102
RTVSPost2010Prop53
 90
        2
102
RTVSPost2010PropOp53
 70
     1
102
RTVSPost2010Prop54
  1
strokes_ogs.tif
102
RTVSPost2010PropOp54
 70
     1
102
RTVSPost2010Prop55
280
     0
102
RTVSPost2010PropOp55
 70
     1
102
RTVSPost2010Prop56
140
1.0
102
RTVSPost2010PropOp56
 70
     1
102
RTVSPost2010Prop57
140
1.0
102
RTVSPost2010PropOp57
 70
     1
102
RTVSPropertyOp0
 70
     1
102
RTVSPropertyOp1
 70
     1
102
RTVSPropertyOp2
 70
     1
102
RTVSPropertyOp3
 70
     1
102
RTVSPropertyOp4
 70
     1
102
RTVSPropertyOp5
 70
     1
102
RTVSPropertyOp6
 70
     1
102
RTVSPropertyOp7
 70
     1
102
RTVSPropertyOp8
 70
     1
102
RTVSPropertyOp9
 70
     1
102
RTVSPropertyOp10
 70
     1
102
RTVSPropertyOp11
 70
     1
102
RTVSPropertyOp12
 70
     1
102
RTVSPropertyOp13
 70
     1
102
RTVSPropertyOp14
 70
     1
102
RTVSPropertyOp15
 70
     1
102
RTVSPropertyOp16
 70
     1
102
RTVSPropertyOp17
 70
     1
102
RTVSPropertyOp18
 70
     1
102
RTVSPropertyOp19
 70
     1
102
RTVSPropertyOp20
 70
     1
102
RTVSPropertyOp21
 70
     1
102
RTVSPropertyOp22
 70
     1
102
RTVSPropertyOp23
 70
     1
102
RTVSPropertyOp24
 70
     1
102
RTVSPropertyOp25
 70
     1
102
RTVSPropertyOp26
 70
     1
102
RTVSPropertyOp27
 70
     1
102
RTVSPropertyOp28
 70
     1
102
RTVSPropertyOp29
 70
     1
102
RTVSPropertyOp30
 70
     1
102
RTVSPropertyOp31
 70
     1
102
RTVSPropertyOp32
 70
     1
102
RTVSPropertyOp33
 70
     1
102
RTVSPropertyOp34
 70
     1
102
RTVSPropertyOp35
 70
     1
102
RTVSPropertyOp36
 70
     1
102
RTVSPropertyOp37
 70
     1
102
RTVSPropertyOp38
 70
     1
102
RTVSPropertyOp39
 70
     1
102
RTVSPropertyOp40
 70
     1
102
RTVSPropertyOp41
 70
     1
102
RTVSPropertyOp42
 70
     1
102
RTVSPropertyOp43
 70
     1
102
RTVSPropertyOp44
 70
     1
102
RTVSPropertyOp45
 70
     1
102
RTVSPropertyOp46
 70
     1
102
RTVSPropertyOp47
 70
     1
102
RTVSPropertyOp48
 70
     1
102
RTVSPropertyOp49
 70
     1
102
RTVSPropertyOp50
 70
     1
102
RTVSPropertyOp51
 70
     0
102
RTVSPropertyOp52
 70
     0
102
RTVSPropertyOp53
 70
     1
102
RTVSPropertyOp54
 70
     1
102
RTVSPropertyOp55
 70
     1
102
RTVSPropertyOp56
 70
     1
102
RTVSPropertyOp57
 70
     1
102
RTVSPropertyOp58
 70
     1
102
RTVSPropertyOp59
 70
     1
102
RTVSPropertyOp60
 70
     1
102
RTVSPropertyOp61
 70
     1
102
RTVSPropertyOp62
 70
     1
  0
XRECORD
  5
B1A
102
{ACAD_REACTORS
330
B19
102
}
330
B19
100
AcDbXrecord
280
     1
102
RTVSPost2010Prop28
280
     0
102
RTVSPost2010PropOp28
 70
     0
102
RTVSPost2010Prop29
280
     1
102
RTVSPost2010PropOp29
 70
     0
102
RTVSPost2010Prop30
280
     1
102
RTVSPost2010PropOp30
 70
     0
102
RTVSPost2010Prop31
280
     0
102
RTVSPost2010PropOp31
 70
     0
102
RTVSPost2010Prop32
280
     0
102
RTVSPost2010PropOp32
 70
     0
102
RTVSPost2010Prop33
280
     0
102
RTVSPost2010PropOp33
 70
     0
102
RTVSPost2010Prop34
280
     0
102
RTVSPost2010PropOp34
 70
     0
102
RTVSPost2010Prop35
280
     0
102
RTVSPost2010PropOp35
 70
     0
102
RTVSPost2010Prop36
280
     0
102
RTVSPost2010PropOp36
 70
     0
102
RTVSPost2010Prop37
 90
       50
102
RTVSPost2010PropOp37
 70
     0
102
RTVSPost2010Prop38
140
0.0
102
RTVSPost2010PropOp38
 70
     0
102
RTVSPost2010Prop39
140
1.0
102
RTVSPost2010PropOp39
 70
     0
102
RTVSPost2010Prop40
 90
        0
102
RTVSPost2010PropOp40
 70
     0
102
RTVSPost2010Prop41ColorIndex
 90
       18
102
RTVSPost2010Prop41ColorRGB
 90
        0
102
RTVSPost2010PropOp41
 70
     0
102
RTVSPost2010Prop42
 90
       50
102
RTVSPost2010PropOp42
 70
     0
102
RTVSPost2010Prop43
 90
        3
102
RTVSPost2010PropOp43
 70
     0
102
RTVSPost2010Prop44ColorIndex
 90
        5
102
RTVSPost2010Prop44ColorRGB
 90
      255
102
RTVSPost2010PropOp44
 70
     0
102
RTVSPost2010Prop45
280
     0
102
RTVSPost2010PropOp45
 70
     0
102
RTVSPost2010Prop46
 90
       50
102
RTVSPost2010PropOp46
 70
     0
102
RTVSPost2010Prop47
 90
       50
102
RTVSPost2010PropOp47
 70
     0
102
RTVSPost2010Prop48
 90
       50
102
RTVSPost2010PropOp48
 70
     0
102
RTVSPost2010Prop49
280
     0
102
RTVSPost2010PropOp49
 70
     0
102
RTVSPost2010Prop50
 90
       50
102
RTVSPost2010PropOp50
 70
     0
102
RTVSPost2010Prop51ColorIndex
 90
      256
102
RTVSPost2010Prop51ColorRGB
 90
-16777216
102
RTVSPost2010PropOp51
 70
     0
102
RTVSPost2010Prop52
140
1.0
102
RTVSPost2010PropOp52
 70
     0
102
RTVSPost2010Prop53
 90
        2
102
RTVSPost2010PropOp53
 70
     0
102
RTVSPost2010Prop54
  1
strokes_ogs.tif
102
RTVSPost2010PropOp54
 70
     0
102
RTVSPost2010Prop55
280
     0
102
RTVSPost2010PropOp55
 70
     0
102
RTVSPost2010Prop56
140
1.0
102
RTVSPost2010PropOp56
 70
     0
102
RTVSPost2010Prop57
140
1.0
102
RTVSPost2010PropOp57
 70
     0
102
RTVSPropertyOp0
 70
     0
102
RTVSPropertyOp1
 70
     0
102
RTVSPropertyOp2
 70
     0
102
RTVSPropertyOp3
 70
     0
102
RTVSPropertyOp4
 70
     0
102
RTVSPropertyOp5
 70
     0
102
RTVSPropertyOp6
 70
     0
102
RTVSPropertyOp7
 70
     0
102
RTVSPropertyOp8
 70
     0
102
RTVSPropertyOp9
 70
     0
102
RTVSPropertyOp10
 70
     0
102
RTVSPropertyOp11
 70
     0
102
RTVSPropertyOp12
 70
     0
102
RTVSPropertyOp13
 70
     0
102
RTVSPropertyOp14
 70
     2
102
RTVSPropertyOp15
 70
     0
102
RTVSPropertyOp16
 70
     0
102
RTVSPropertyOp17
 70
     0
102
RTVSPropertyOp18
 70
     0
102
RTVSPropertyOp19
 70
     0
102
RTVSPropertyOp20
 70
     0
102
RTVSPropertyOp21
 70
     0
102
RTVSPropertyOp22
 70
     0
102
RTVSPropertyOp23
 70
     0
102
RTVSPropertyOp24
 70
     0
102
RTVSPropertyOp25
 70
     0
102
RTVSPropertyOp26
 70
     0
102
RTVSPropertyOp27
 70
     0
102
RTVSPropertyOp28
 70
     0
102
RTVSPropertyOp29
 70
     0
102
RTVSPropertyOp30
 70
     0
102
RTVSPropertyOp31
 70
     0
102
RTVSPropertyOp32
 70
     0
102
RTVSPropertyOp33
 70
     0
102
RTVSPropertyOp34
 70
     0
102
RTVSPropertyOp35
 70
     0
102
RTVSPropertyOp36
 70
     0
102
RTVSPropertyOp37
 70
     0
102
RTVSPropertyOp38
 70
     0
102
RTVSPropertyOp39
 70
     0
102
RTVSPropertyOp40
 70
     0
102
RTVSPropertyOp41
 70
     0
102
RTVSPropertyOp42
 70
     0
102
RTVSPropertyOp43
 70
     0
102
RTVSPropertyOp44
 70
     0
102
RTVSPropertyOp45
 70
     0
102
RTVSPropertyOp46
 70
     0
102
RTVSPropertyOp47
 70
     0
102
RTVSPropertyOp48
 70
     0
102
RTVSPropertyOp49
 70
     0
102
RTVSPropertyOp50
 70
     0
102
RTVSPropertyOp51
 70
     0
102
RTVSPropertyOp52
 70
     0
102
RTVSPropertyOp53
 70
     0
102
RTVSPropertyOp54
 70
     0
102
RTVSPropertyOp55
 70
     0
102
RTVSPropertyOp56
 70
     0
102
RTVSPropertyOp57
 70
     0
102
RTVSPropertyOp58
 70
     1
102
RTVSPropertyOp59
 70
     1
102
RTVSPropertyOp60
 70
     1
102
RTVSPropertyOp61
 70
     1
102
RTVSPropertyOp62
 70
     1
  0
XRECORD
  5
B00
102
{ACAD_REACTORS
330
AFF
102
}
330
AFF
100
AcDbXrecord
280
     1
102
RTVSPost2010Prop28
280
     0
102
RTVSPost2010PropOp28
 70
     1
102
RTVSPost2010Prop29
280
     1
102
RTVSPost2010PropOp29
 70
     1
102
RTVSPost2010Prop30
280
     1
102
RTVSPost2010PropOp30
 70
     1
102
RTVSPost2010Prop31
280
     0
102
RTVSPost2010PropOp31
 70
     1
102
RTVSPost2010Prop32
280
     0
102
RTVSPost2010PropOp32
 70
     1
102
RTVSPost2010Prop33
280
     0
102
RTVSPost2010PropOp33
 70
     1
102
RTVSPost2010Prop34
280
     0
102
RTVSPost2010PropOp34
 70
     1
102
RTVSPost2010Prop35
280
     0
102
RTVSPost2010PropOp35
 70
     1
102
RTVSPost2010Prop36
280
     0
102
RTVSPost2010PropOp36
 70
     1
102
RTVSPost2010Prop37
 90
       50
102
RTVSPost2010PropOp37
 70
     1
102
RTVSPost2010Prop38
140
0.0
102
RTVSPost2010PropOp38
 70
     1
102
RTVSPost2010Prop39
140
1.0
102
RTVSPost2010PropOp39
 70
     1
102
RTVSPost2010Prop40
 90
        0
102
RTVSPost2010PropOp40
 70
     1
102
RTVSPost2010Prop41ColorIndex
 90
       18
102
RTVSPost2010Prop41ColorRGB
 90
        0
102
RTVSPost2010PropOp41
 70
     1
102
RTVSPost2010Prop42
 90
       50
102
RTVSPost2010PropOp42
 70
     1
102
RTVSPost2010Prop43
 90
        3
102
RTVSPost2010PropOp43
 70
     1
102
RTVSPost2010Prop44ColorIndex
 90
        5
102
RTVSPost2010Prop44ColorRGB
 90
      255
102
RTVSPost2010PropOp44
 70
     1
102
RTVSPost2010Prop45
280
     0
102
RTVSPost2010PropOp45
 70
     1
102
RTVSPost2010Prop46
 90
       50
102
RTVSPost2010PropOp46
 70
     1
102
RTVSPost2010Prop47
 90
       50
102
RTVSPost2010PropOp47
 70
     1
102
RTVSPost2010Prop48
 90
       50
102
RTVSPost2010PropOp48
 70
     1
102
RTVSPost2010Prop49
280
     0
102
RTVSPost2010PropOp49
 70
     1
102
RTVSPost2010Prop50
 90
       50
102
RTVSPost2010PropOp50
 70
     1
102
RTVSPost2010Prop51ColorIndex
 90
      256
102
RTVSPost2010Prop51ColorRGB
 90
-16777216
102
RTVSPost2010PropOp51
 70
     0
102
RTVSPost2010Prop52
140
1.0
102
RTVSPost2010PropOp52
 70
     0
102
RTVSPost2010Prop53
 90
        2
102
RTVSPost2010PropOp53
 70
     1
102
RTVSPost2010Prop54
  1
strokes_ogs.tif
102
RTVSPost2010PropOp54
 70
     1
102
RTVSPost2010Prop55
280
     0
102
RTVSPost2010PropOp55
 70
     1
102
RTVSPost2010Prop56
140
1.0
102
RTVSPost2010PropOp56
 70
     1
102
RTVSPost2010Prop57
140
1.0
102
RTVSPost2010PropOp57
 70
     1
102
RTVSPropertyOp0
 70
     1
102
RTVSPropertyOp1
 70
     1
102
RTVSPropertyOp2
 70
     1
102
RTVSPropertyOp3
 70
     1
102
RTVSPropertyOp4
 70
     1
102
RTVSPropertyOp5
 70
     1
102
RTVSPropertyOp6
 70
     1
102
RTVSPropertyOp7
 70
     1
102
RTVSPropertyOp8
 70
     1
102
RTVSPropertyOp9
 70
     1
102
RTVSPropertyOp10
 70
     1
102
RTVSPropertyOp11
 70
     1
102
RTVSPropertyOp12
 70
     1
102
RTVSPropertyOp13
 70
     1
102
RTVSPropertyOp14
 70
     1
102
RTVSPropertyOp15
 70
     1
102
RTVSPropertyOp16
 70
     1
102
RTVSPropertyOp17
 70
     1
102
RTVSPropertyOp18
 70
     1
102
RTVSPropertyOp19
 70
     1
102
RTVSPropertyOp20
 70
     1
102
RTVSPropertyOp21
 70
     1
102
RTVSPropertyOp22
 70
     1
102
RTVSPropertyOp23
 70
     1
102
RTVSPropertyOp24
 70
     1
102
RTVSPropertyOp25
 70
     1
102
RTVSPropertyOp26
 70
     1
102
RTVSPropertyOp27
 70
     1
102
RTVSPropertyOp28
 70
     1
102
RTVSPropertyOp29
 70
     1
102
RTVSPropertyOp30
 70
     1
102
RTVSPropertyOp31
 70
     1
102
RTVSPropertyOp32
 70
     1
102
RTVSPropertyOp33
 70
     1
102
RTVSPropertyOp34
 70
     1
102
RTVSPropertyOp35
 70
     1
102
RTVSPropertyOp36
 70
     1
102
RTVSPropertyOp37
 70
     1
102
RTVSPropertyOp38
 70
     1
102
RTVSPropertyOp39
 70
     1
102
RTVSPropertyOp40
 70
     1
102
RTVSPropertyOp41
 70
     1
102
RTVSPropertyOp42
 70
     1
102
RTVSPropertyOp43
 70
     1
102
RTVSPropertyOp44
 70
     1
102
RTVSPropertyOp45
 70
     1
102
RTVSPropertyOp46
 70
     1
102
RTVSPropertyOp47
 70
     1
102
RTVSPropertyOp48
 70
     1
102
RTVSPropertyOp49
 70
     1
102
RTVSPropertyOp50
 70
     1
102
RTVSPropertyOp51
 70
     0
102
RTVSPropertyOp52
 70
     0
102
RTVSPropertyOp53
 70
     1
102
RTVSPropertyOp54
 70
     1
102
RTVSPropertyOp55
 70
     1
102
RTVSPropertyOp56
 70
     1
102
RTVSPropertyOp57
 70
     1
102
RTVSPropertyOp58
 70
     1
102
RTVSPropertyOp59
 70
     1
102
RTVSPropertyOp60
 70
     1
102
RTVSPropertyOp61
 70
     1
102
RTVSPropertyOp62
 70
     1
  0
XRECORD
  5
B16
102
{ACAD_REACTORS
330
B15
102
}
330
B15
100
AcDbXrecord
280
     1
102
RTVSPost2010Prop28
280
     0
102
RTVSPost2010PropOp28
 70
     1
102
RTVSPost2010Prop29
280
     1
102
RTVSPost2010PropOp29
 70
     1
102
RTVSPost2010Prop30
280
     1
102
RTVSPost2010PropOp30
 70
     1
102
RTVSPost2010Prop31
280
     0
102
RTVSPost2010PropOp31
 70
     1
102
RTVSPost2010Prop32
280
     0
102
RTVSPost2010PropOp32
 70
     1
102
RTVSPost2010Prop33
280
     0
102
RTVSPost2010PropOp33
 70
     1
102
RTVSPost2010Prop34
280
     0
102
RTVSPost2010PropOp34
 70
     1
102
RTVSPost2010Prop35
280
     0
102
RTVSPost2010PropOp35
 70
     1
102
RTVSPost2010Prop36
280
     0
102
RTVSPost2010PropOp36
 70
     1
102
RTVSPost2010Prop37
 90
       50
102
RTVSPost2010PropOp37
 70
     1
102
RTVSPost2010Prop38
140
0.0
102
RTVSPost2010PropOp38
 70
     1
102
RTVSPost2010Prop39
140
1.0
102
RTVSPost2010PropOp39
 70
     1
102
RTVSPost2010Prop40
 90
        0
102
RTVSPost2010PropOp40
 70
     1
102
RTVSPost2010Prop41ColorIndex
 90
       18
102
RTVSPost2010Prop41ColorRGB
 90
        0
102
RTVSPost2010PropOp41
 70
     1
102
RTVSPost2010Prop42
 90
       50
102
RTVSPost2010PropOp42
 70
     1
102
RTVSPost2010Prop43
 90
        3
102
RTVSPost2010PropOp43
 70
     1
102
RTVSPost2010Prop44ColorIndex
 90
        5
102
RTVSPost2010Prop44ColorRGB
 90
      255
102
RTVSPost2010PropOp44
 70
     1
102
RTVSPost2010Prop45
280
     0
102
RTVSPost2010PropOp45
 70
     1
102
RTVSPost2010Prop46
 90
       50
102
RTVSPost2010PropOp46
 70
     1
102
RTVSPost2010Prop47
 90
       50
102
RTVSPost2010PropOp47
 70
     1
102
RTVSPost2010Prop48
 90
       50
102
RTVSPost2010PropOp48
 70
     1
102
RTVSPost2010Prop49
280
     0
102
RTVSPost2010PropOp49
 70
     1
102
RTVSPost2010Prop50
 90
       50
102
RTVSPost2010PropOp50
 70
     1
102
RTVSPost2010Prop51ColorIndex
 90
      256
102
RTVSPost2010Prop51ColorRGB
 90
-16777216
102
RTVSPost2010PropOp51
 70
     0
102
RTVSPost2010Prop52
140
1.0
102
RTVSPost2010PropOp52
 70
     0
102
RTVSPost2010Prop53
 90
        2
102
RTVSPost2010PropOp53
 70
     1
102
RTVSPost2010Prop54
  1
strokes_ogs.tif
102
RTVSPost2010PropOp54
 70
     1
102
RTVSPost2010Prop55
280
     0
102
RTVSPost2010PropOp55
 70
     1
102
RTVSPost2010Prop56
140
1.0
102
RTVSPost2010PropOp56
 70
     1
102
RTVSPost2010Prop57
140
1.0
102
RTVSPost2010PropOp57
 70
     1
102
RTVSPropertyOp0
 70
     1
102
RTVSPropertyOp1
 70
     1
102
RTVSPropertyOp2
 70
     1
102
RTVSPropertyOp3
 70
     1
102
RTVSPropertyOp4
 70
     1
102
RTVSPropertyOp5
 70
     1
102
RTVSPropertyOp6
 70
     1
102
RTVSPropertyOp7
 70
     1
102
RTVSPropertyOp8
 70
     1
102
RTVSPropertyOp9
 70
     1
102
RTVSPropertyOp10
 70
     1
102
RTVSPropertyOp11
 70
     1
102
RTVSPropertyOp12
 70
     1
102
RTVSPropertyOp13
 70
     1
102
RTVSPropertyOp14
 70
     1
102
RTVSPropertyOp15
 70
     1
102
RTVSPropertyOp16
 70
     1
102
RTVSPropertyOp17
 70
     1
102
RTVSPropertyOp18
 70
     1
102
RTVSPropertyOp19
 70
     1
102
RTVSPropertyOp20
 70
     1
102
RTVSPropertyOp21
 70
     1
102
RTVSPropertyOp22
 70
     1
102
RTVSPropertyOp23
 70
     1
102
RTVSPropertyOp24
 70
     1
102
RTVSPropertyOp25
 70
     1
102
RTVSPropertyOp26
 70
     1
102
RTVSPropertyOp27
 70
     1
102
RTVSPropertyOp28
 70
     1
102
RTVSPropertyOp29
 70
     1
102
RTVSPropertyOp30
 70
     1
102
RTVSPropertyOp31
 70
     1
102
RTVSPropertyOp32
 70
     1
102
RTVSPropertyOp33
 70
     1
102
RTVSPropertyOp34
 70
     1
102
RTVSPropertyOp35
 70
     1
102
RTVSPropertyOp36
 70
     1
102
RTVSPropertyOp37
 70
     1
102
RTVSPropertyOp38
 70
     1
102
RTVSPropertyOp39
 70
     1
102
RTVSPropertyOp40
 70
     1
102
RTVSPropertyOp41
 70
     1
102
RTVSPropertyOp42
 70
     1
102
RTVSPropertyOp43
 70
     1
102
RTVSPropertyOp44
 70
     1
102
RTVSPropertyOp45
 70
     1
102
RTVSPropertyOp46
 70
     1
102
RTVSPropertyOp47
 70
     1
102
RTVSPropertyOp48
 70
     1
102
RTVSPropertyOp49
 70
     1
102
RTVSPropertyOp50
 70
     1
102
RTVSPropertyOp51
 70
     0
102
RTVSPropertyOp52
 70
     0
102
RTVSPropertyOp53
 70
     1
102
RTVSPropertyOp54
 70
     1
102
RTVSPropertyOp55
 70
     1
102
RTVSPropertyOp56
 70
     1
102
RTVSPropertyOp57
 70
     1
102
RTVSPropertyOp58
 70
     1
102
RTVSPropertyOp59
 70
     1
102
RTVSPropertyOp60
 70
     1
102
RTVSPropertyOp61
 70
     1
102
RTVSPropertyOp62
 70
     1
  0
XRECORD
  5
B14
102
{ACAD_REACTORS
330
B13
102
}
330
B13
100
AcDbXrecord
280
     1
102
RTVSPost2010Prop28
280
     0
102
RTVSPost2010PropOp28
 70
     1
102
RTVSPost2010Prop29
280
     1
102
RTVSPost2010PropOp29
 70
     1
102
RTVSPost2010Prop30
280
     1
102
RTVSPost2010PropOp30
 70
     1
102
RTVSPost2010Prop31
280
     0
102
RTVSPost2010PropOp31
 70
     1
102
RTVSPost2010Prop32
280
     0
102
RTVSPost2010PropOp32
 70
     1
102
RTVSPost2010Prop33
280
     0
102
RTVSPost2010PropOp33
 70
     1
102
RTVSPost2010Prop34
280
     0
102
RTVSPost2010PropOp34
 70
     1
102
RTVSPost2010Prop35
280
     0
102
RTVSPost2010PropOp35
 70
     1
102
RTVSPost2010Prop36
280
     0
102
RTVSPost2010PropOp36
 70
     1
102
RTVSPost2010Prop37
 90
       50
102
RTVSPost2010PropOp37
 70
     1
102
RTVSPost2010Prop38
140
0.0
102
RTVSPost2010PropOp38
 70
     1
102
RTVSPost2010Prop39
140
1.0
102
RTVSPost2010PropOp39
 70
     1
102
RTVSPost2010Prop40
 90
        0
102
RTVSPost2010PropOp40
 70
     1
102
RTVSPost2010Prop41ColorIndex
 90
       18
102
RTVSPost2010Prop41ColorRGB
 90
        0
102
RTVSPost2010PropOp41
 70
     1
102
RTVSPost2010Prop42
 90
       50
102
RTVSPost2010PropOp42
 70
     1
102
RTVSPost2010Prop43
 90
        3
102
RTVSPost2010PropOp43
 70
     1
102
RTVSPost2010Prop44ColorIndex
 90
        5
102
RTVSPost2010Prop44ColorRGB
 90
      255
102
RTVSPost2010PropOp44
 70
     1
102
RTVSPost2010Prop45
280
     0
102
RTVSPost2010PropOp45
 70
     1
102
RTVSPost2010Prop46
 90
       50
102
RTVSPost2010PropOp46
 70
     1
102
RTVSPost2010Prop47
 90
       50
102
RTVSPost2010PropOp47
 70
     1
102
RTVSPost2010Prop48
 90
       50
102
RTVSPost2010PropOp48
 70
     1
102
RTVSPost2010Prop49
280
     0
102
RTVSPost2010PropOp49
 70
     1
102
RTVSPost2010Prop50
 90
       50
102
RTVSPost2010PropOp50
 70
     1
102
RTVSPost2010Prop51ColorIndex
 90
      256
102
RTVSPost2010Prop51ColorRGB
 90
-16777216
102
RTVSPost2010PropOp51
 70
     0
102
RTVSPost2010Prop52
140
1.0
102
RTVSPost2010PropOp52
 70
     0
102
RTVSPost2010Prop53
 90
        2
102
RTVSPost2010PropOp53
 70
     1
102
RTVSPost2010Prop54
  1
strokes_ogs.tif
102
RTVSPost2010PropOp54
 70
     1
102
RTVSPost2010Prop55
280
     0
102
RTVSPost2010PropOp55
 70
     1
102
RTVSPost2010Prop56
140
1.0
102
RTVSPost2010PropOp56
 70
     1
102
RTVSPost2010Prop57
140
1.0
102
RTVSPost2010PropOp57
 70
     1
102
RTVSPropertyOp0
 70
     1
102
RTVSPropertyOp1
 70
     1
102
RTVSPropertyOp2
 70
     1
102
RTVSPropertyOp3
 70
     1
102
RTVSPropertyOp4
 70
     1
102
RTVSPropertyOp5
 70
     1
102
RTVSPropertyOp6
 70
     1
102
RTVSPropertyOp7
 70
     1
102
RTVSPropertyOp8
 70
     1
102
RTVSPropertyOp9
 70
     1
102
RTVSPropertyOp10
 70
     1
102
RTVSPropertyOp11
 70
     1
102
RTVSPropertyOp12
 70
     1
102
RTVSPropertyOp13
 70
     1
102
RTVSPropertyOp14
 70
     1
102
RTVSPropertyOp15
 70
     1
102
RTVSPropertyOp16
 70
     1
102
RTVSPropertyOp17
 70
     1
102
RTVSPropertyOp18
 70
     1
102
RTVSPropertyOp19
 70
     1
102
RTVSPropertyOp20
 70
     1
102
RTVSPropertyOp21
 70
     1
102
RTVSPropertyOp22
 70
     1
102
RTVSPropertyOp23
 70
     1
102
RTVSPropertyOp24
 70
     1
102
RTVSPropertyOp25
 70
     1
102
RTVSPropertyOp26
 70
     1
102
RTVSPropertyOp27
 70
     1
102
RTVSPropertyOp28
 70
     1
102
RTVSPropertyOp29
 70
     1
102
RTVSPropertyOp30
 70
     1
102
RTVSPropertyOp31
 70
     1
102
RTVSPropertyOp32
 70
     1
102
RTVSPropertyOp33
 70
     1
102
RTVSPropertyOp34
 70
     1
102
RTVSPropertyOp35
 70
     1
102
RTVSPropertyOp36
 70
     1
102
RTVSPropertyOp37
 70
     1
102
RTVSPropertyOp38
 70
     1
102
RTVSPropertyOp39
 70
     1
102
RTVSPropertyOp40
 70
     1
102
RTVSPropertyOp41
 70
     1
102
RTVSPropertyOp42
 70
     1
102
RTVSPropertyOp43
 70
     1
102
RTVSPropertyOp44
 70
     1
102
RTVSPropertyOp45
 70
     1
102
RTVSPropertyOp46
 70
     1
102
RTVSPropertyOp47
 70
     1
102
RTVSPropertyOp48
 70
     1
102
RTVSPropertyOp49
 70
     1
102
RTVSPropertyOp50
 70
     1
102
RTVSPropertyOp51
 70
     0
102
RTVSPropertyOp52
 70
     0
102
RTVSPropertyOp53
 70
     1
102
RTVSPropertyOp54
 70
     1
102
RTVSPropertyOp55
 70
     1
102
RTVSPropertyOp56
 70
     1
102
RTVSPropertyOp57
 70
     1
102
RTVSPropertyOp58
 70
     1
102
RTVSPropertyOp59
 70
     1
102
RTVSPropertyOp60
 70
     1
102
RTVSPropertyOp61
 70
     1
102
RTVSPropertyOp62
 70
     1
  0
XRECORD
  5
B0E
102
{ACAD_REACTORS
330
B0D
102
}
330
B0D
100
AcDbXrecord
280
     1
102
RTVSPost2010Prop28
280
     0
102
RTVSPost2010PropOp28
 70
     1
102
RTVSPost2010Prop29
280
     1
102
RTVSPost2010PropOp29
 70
     1
102
RTVSPost2010Prop30
280
     1
102
RTVSPost2010PropOp30
 70
     1
102
RTVSPost2010Prop31
280
     0
102
RTVSPost2010PropOp31
 70
     1
102
RTVSPost2010Prop32
280
     0
102
RTVSPost2010PropOp32
 70
     1
102
RTVSPost2010Prop33
280
     0
102
RTVSPost2010PropOp33
 70
     1
102
RTVSPost2010Prop34
280
     0
102
RTVSPost2010PropOp34
 70
     1
102
RTVSPost2010Prop35
280
     0
102
RTVSPost2010PropOp35
 70
     1
102
RTVSPost2010Prop36
280
     0
102
RTVSPost2010PropOp36
 70
     1
102
RTVSPost2010Prop37
 90
       50
102
RTVSPost2010PropOp37
 70
     1
102
RTVSPost2010Prop38
140
0.0
102
RTVSPost2010PropOp38
 70
     1
102
RTVSPost2010Prop39
140
1.0
102
RTVSPost2010PropOp39
 70
     1
102
RTVSPost2010Prop40
 90
        0
102
RTVSPost2010PropOp40
 70
     1
102
RTVSPost2010Prop41ColorIndex
 90
       18
102
RTVSPost2010Prop41ColorRGB
 90
        0
102
RTVSPost2010PropOp41
 70
     1
102
RTVSPost2010Prop42
 90
       50
102
RTVSPost2010PropOp42
 70
     1
102
RTVSPost2010Prop43
 90
        3
102
RTVSPost2010PropOp43
 70
     1
102
RTVSPost2010Prop44ColorIndex
 90
        5
102
RTVSPost2010Prop44ColorRGB
 90
      255
102
RTVSPost2010PropOp44
 70
     1
102
RTVSPost2010Prop45
280
     0
102
RTVSPost2010PropOp45
 70
     1
102
RTVSPost2010Prop46
 90
       50
102
RTVSPost2010PropOp46
 70
     1
102
RTVSPost2010Prop47
 90
       50
102
RTVSPost2010PropOp47
 70
     1
102
RTVSPost2010Prop48
 90
       50
102
RTVSPost2010PropOp48
 70
     1
102
RTVSPost2010Prop49
280
     0
102
RTVSPost2010PropOp49
 70
     1
102
RTVSPost2010Prop50
 90
       50
102
RTVSPost2010PropOp50
 70
     1
102
RTVSPost2010Prop51ColorIndex
 90
      256
102
RTVSPost2010Prop51ColorRGB
 90
-16777216
102
RTVSPost2010PropOp51
 70
     0
102
RTVSPost2010Prop52
140
1.0
102
RTVSPost2010PropOp52
 70
     0
102
RTVSPost2010Prop53
 90
        2
102
RTVSPost2010PropOp53
 70
     1
102
RTVSPost2010Prop54
  1
strokes_ogs.tif
102
RTVSPost2010PropOp54
 70
     1
102
RTVSPost2010Prop55
280
     0
102
RTVSPost2010PropOp55
 70
     1
102
RTVSPost2010Prop56
140
1.0
102
RTVSPost2010PropOp56
 70
     1
102
RTVSPost2010Prop57
140
1.0
102
RTVSPost2010PropOp57
 70
     1
102
RTVSPropertyOp0
 70
     1
102
RTVSPropertyOp1
 70
     1
102
RTVSPropertyOp2
 70
     1
102
RTVSPropertyOp3
 70
     1
102
RTVSPropertyOp4
 70
     1
102
RTVSPropertyOp5
 70
     1
102
RTVSPropertyOp6
 70
     1
102
RTVSPropertyOp7
 70
     1
102
RTVSPropertyOp8
 70
     1
102
RTVSPropertyOp9
 70
     1
102
RTVSPropertyOp10
 70
     1
102
RTVSPropertyOp11
 70
     1
102
RTVSPropertyOp12
 70
     1
102
RTVSPropertyOp13
 70
     1
102
RTVSPropertyOp14
 70
     1
102
RTVSPropertyOp15
 70
     1
102
RTVSPropertyOp16
 70
     1
102
RTVSPropertyOp17
 70
     1
102
RTVSPropertyOp18
 70
     1
102
RTVSPropertyOp19
 70
     1
102
RTVSPropertyOp20
 70
     1
102
RTVSPropertyOp21
 70
     1
102
RTVSPropertyOp22
 70
     1
102
RTVSPropertyOp23
 70
     1
102
RTVSPropertyOp24
 70
     1
102
RTVSPropertyOp25
 70
     1
102
RTVSPropertyOp26
 70
     1
102
RTVSPropertyOp27
 70
     1
102
RTVSPropertyOp28
 70
     1
102
RTVSPropertyOp29
 70
     1
102
RTVSPropertyOp30
 70
     1
102
RTVSPropertyOp31
 70
     1
102
RTVSPropertyOp32
 70
     1
102
RTVSPropertyOp33
 70
     1
102
RTVSPropertyOp34
 70
     1
102
RTVSPropertyOp35
 70
     1
102
RTVSPropertyOp36
 70
     1
102
RTVSPropertyOp37
 70
     1
102
RTVSPropertyOp38
 70
     1
102
RTVSPropertyOp39
 70
     1
102
RTVSPropertyOp40
 70
     1
102
RTVSPropertyOp41
 70
     1
102
RTVSPropertyOp42
 70
     1
102
RTVSPropertyOp43
 70
     1
102
RTVSPropertyOp44
 70
     1
102
RTVSPropertyOp45
 70
     1
102
RTVSPropertyOp46
 70
     1
102
RTVSPropertyOp47
 70
     1
102
RTVSPropertyOp48
 70
     1
102
RTVSPropertyOp49
 70
     1
102
RTVSPropertyOp50
 70
     1
102
RTVSPropertyOp51
 70
     0
102
RTVSPropertyOp52
 70
     0
102
RTVSPropertyOp53
 70
     1
102
RTVSPropertyOp54
 70
     1
102
RTVSPropertyOp55
 70
     1
102
RTVSPropertyOp56
 70
     1
102
RTVSPropertyOp57
 70
     1
102
RTVSPropertyOp58
 70
     1
102
RTVSPropertyOp59
 70
     1
102
RTVSPropertyOp60
 70
     1
102
RTVSPropertyOp61
 70
     1
102
RTVSPropertyOp62
 70
     1
  0
XRECORD
  5
B10
102
{ACAD_REACTORS
330
B0F
102
}
330
B0F
100
AcDbXrecord
280
     1
102
RTVSPost2010Prop28
280
     0
102
RTVSPost2010PropOp28
 70
     1
102
RTVSPost2010Prop29
280
     1
102
RTVSPost2010PropOp29
 70
     1
102
RTVSPost2010Prop30
280
     1
102
RTVSPost2010PropOp30
 70
     1
102
RTVSPost2010Prop31
280
     0
102
RTVSPost2010PropOp31
 70
     1
102
RTVSPost2010Prop32
280
     0
102
RTVSPost2010PropOp32
 70
     1
102
RTVSPost2010Prop33
280
     0
102
RTVSPost2010PropOp33
 70
     1
102
RTVSPost2010Prop34
280
     0
102
RTVSPost2010PropOp34
 70
     1
102
RTVSPost2010Prop35
280
     0
102
RTVSPost2010PropOp35
 70
     1
102
RTVSPost2010Prop36
280
     0
102
RTVSPost2010PropOp36
 70
     1
102
RTVSPost2010Prop37
 90
       50
102
RTVSPost2010PropOp37
 70
     1
102
RTVSPost2010Prop38
140
0.0
102
RTVSPost2010PropOp38
 70
     1
102
RTVSPost2010Prop39
140
1.0
102
RTVSPost2010PropOp39
 70
     1
102
RTVSPost2010Prop40
 90
        0
102
RTVSPost2010PropOp40
 70
     1
102
RTVSPost2010Prop41ColorIndex
 90
       18
102
RTVSPost2010Prop41ColorRGB
 90
        0
102
RTVSPost2010PropOp41
 70
     1
102
RTVSPost2010Prop42
 90
       50
102
RTVSPost2010PropOp42
 70
     1
102
RTVSPost2010Prop43
 90
        3
102
RTVSPost2010PropOp43
 70
     1
102
RTVSPost2010Prop44ColorIndex
 90
        5
102
RTVSPost2010Prop44ColorRGB
 90
      255
102
RTVSPost2010PropOp44
 70
     1
102
RTVSPost2010Prop45
280
     0
102
RTVSPost2010PropOp45
 70
     1
102
RTVSPost2010Prop46
 90
       50
102
RTVSPost2010PropOp46
 70
     1
102
RTVSPost2010Prop47
 90
       50
102
RTVSPost2010PropOp47
 70
     1
102
RTVSPost2010Prop48
 90
       50
102
RTVSPost2010PropOp48
 70
     1
102
RTVSPost2010Prop49
280
     0
102
RTVSPost2010PropOp49
 70
     1
102
RTVSPost2010Prop50
 90
       50
102
RTVSPost2010PropOp50
 70
     1
102
RTVSPost2010Prop51ColorIndex
 90
      256
102
RTVSPost2010Prop51ColorRGB
 90
-16777216
102
RTVSPost2010PropOp51
 70
     0
102
RTVSPost2010Prop52
140
1.0
102
RTVSPost2010PropOp52
 70
     0
102
RTVSPost2010Prop53
 90
        2
102
RTVSPost2010PropOp53
 70
     1
102
RTVSPost2010Prop54
  1
strokes_ogs.tif
102
RTVSPost2010PropOp54
 70
     1
102
RTVSPost2010Prop55
280
     0
102
RTVSPost2010PropOp55
 70
     1
102
RTVSPost2010Prop56
140
1.0
102
RTVSPost2010PropOp56
 70
     1
102
RTVSPost2010Prop57
140
1.0
102
RTVSPost2010PropOp57
 70
     1
102
RTVSPropertyOp0
 70
     1
102
RTVSPropertyOp1
 70
     1
102
RTVSPropertyOp2
 70
     1
102
RTVSPropertyOp3
 70
     1
102
RTVSPropertyOp4
 70
     1
102
RTVSPropertyOp5
 70
     1
102
RTVSPropertyOp6
 70
     1
102
RTVSPropertyOp7
 70
     1
102
RTVSPropertyOp8
 70
     1
102
RTVSPropertyOp9
 70
     1
102
RTVSPropertyOp10
 70
     1
102
RTVSPropertyOp11
 70
     1
102
RTVSPropertyOp12
 70
     1
102
RTVSPropertyOp13
 70
     1
102
RTVSPropertyOp14
 70
     1
102
RTVSPropertyOp15
 70
     1
102
RTVSPropertyOp16
 70
     1
102
RTVSPropertyOp17
 70
     1
102
RTVSPropertyOp18
 70
     1
102
RTVSPropertyOp19
 70
     1
102
RTVSPropertyOp20
 70
     1
102
RTVSPropertyOp21
 70
     1
102
RTVSPropertyOp22
 70
     1
102
RTVSPropertyOp23
 70
     1
102
RTVSPropertyOp24
 70
     1
102
RTVSPropertyOp25
 70
     1
102
RTVSPropertyOp26
 70
     1
102
RTVSPropertyOp27
 70
     1
102
RTVSPropertyOp28
 70
     1
102
RTVSPropertyOp29
 70
     1
102
RTVSPropertyOp30
 70
     1
102
RTVSPropertyOp31
 70
     1
102
RTVSPropertyOp32
 70
     1
102
RTVSPropertyOp33
 70
     1
102
RTVSPropertyOp34
 70
     1
102
RTVSPropertyOp35
 70
     1
102
RTVSPropertyOp36
 70
     1
102
RTVSPropertyOp37
 70
     1
102
RTVSPropertyOp38
 70
     1
102
RTVSPropertyOp39
 70
     1
102
RTVSPropertyOp40
 70
     1
102
RTVSPropertyOp41
 70
     1
102
RTVSPropertyOp42
 70
     1
102
RTVSPropertyOp43
 70
     1
102
RTVSPropertyOp44
 70
     1
102
RTVSPropertyOp45
 70
     1
102
RTVSPropertyOp46
 70
     1
102
RTVSPropertyOp47
 70
     1
102
RTVSPropertyOp48
 70
     1
102
RTVSPropertyOp49
 70
     1
102
RTVSPropertyOp50
 70
     1
102
RTVSPropertyOp51
 70
     0
102
RTVSPropertyOp52
 70
     0
102
RTVSPropertyOp53
 70
     1
102
RTVSPropertyOp54
 70
     1
102
RTVSPropertyOp55
 70
     1
102
RTVSPropertyOp56
 70
     1
102
RTVSPropertyOp57
 70
     1
102
RTVSPropertyOp58
 70
     1
102
RTVSPropertyOp59
 70
     1
102
RTVSPropertyOp60
 70
     1
102
RTVSPropertyOp61
 70
     1
102
RTVSPropertyOp62
 70
     1
  0
XRECORD
  5
B06
102
{ACAD_REACTORS
330
B05
102
}
330
B05
100
AcDbXrecord
280
     1
102
RTVSPost2010Prop28
280
     0
102
RTVSPost2010PropOp28
 70
     1
102
RTVSPost2010Prop29
280
     1
102
RTVSPost2010PropOp29
 70
     1
102
RTVSPost2010Prop30
280
     1
102
RTVSPost2010PropOp30
 70
     1
102
RTVSPost2010Prop31
280
     0
102
RTVSPost2010PropOp31
 70
     1
102
RTVSPost2010Prop32
280
     0
102
RTVSPost2010PropOp32
 70
     1
102
RTVSPost2010Prop33
280
     0
102
RTVSPost2010PropOp33
 70
     1
102
RTVSPost2010Prop34
280
     0
102
RTVSPost2010PropOp34
 70
     1
102
RTVSPost2010Prop35
280
     0
102
RTVSPost2010PropOp35
 70
     1
102
RTVSPost2010Prop36
280
     0
102
RTVSPost2010PropOp36
 70
     1
102
RTVSPost2010Prop37
 90
       50
102
RTVSPost2010PropOp37
 70
     1
102
RTVSPost2010Prop38
140
0.0
102
RTVSPost2010PropOp38
 70
     1
102
RTVSPost2010Prop39
140
1.0
102
RTVSPost2010PropOp39
 70
     1
102
RTVSPost2010Prop40
 90
        0
102
RTVSPost2010PropOp40
 70
     1
102
RTVSPost2010Prop41ColorIndex
 90
       18
102
RTVSPost2010Prop41ColorRGB
 90
        0
102
RTVSPost2010PropOp41
 70
     1
102
RTVSPost2010Prop42
 90
       50
102
RTVSPost2010PropOp42
 70
     1
102
RTVSPost2010Prop43
 90
        3
102
RTVSPost2010PropOp43
 70
     1
102
RTVSPost2010Prop44ColorIndex
 90
        5
102
RTVSPost2010Prop44ColorRGB
 90
      255
102
RTVSPost2010PropOp44
 70
     1
102
RTVSPost2010Prop45
280
     0
102
RTVSPost2010PropOp45
 70
     1
102
RTVSPost2010Prop46
 90
       50
102
RTVSPost2010PropOp46
 70
     1
102
RTVSPost2010Prop47
 90
       50
102
RTVSPost2010PropOp47
 70
     1
102
RTVSPost2010Prop48
 90
       50
102
RTVSPost2010PropOp48
 70
     1
102
RTVSPost2010Prop49
280
     0
102
RTVSPost2010PropOp49
 70
     1
102
RTVSPost2010Prop50
 90
       50
102
RTVSPost2010PropOp50
 70
     1
102
RTVSPost2010Prop51ColorIndex
 90
      256
102
RTVSPost2010Prop51ColorRGB
 90
-16777216
102
RTVSPost2010PropOp51
 70
     0
102
RTVSPost2010Prop52
140
1.0
102
RTVSPost2010PropOp52
 70
     0
102
RTVSPost2010Prop53
 90
        2
102
RTVSPost2010PropOp53
 70
     1
102
RTVSPost2010Prop54
  1
strokes_ogs.tif
102
RTVSPost2010PropOp54
 70
     1
102
RTVSPost2010Prop55
280
     0
102
RTVSPost2010PropOp55
 70
     1
102
RTVSPost2010Prop56
140
1.0
102
RTVSPost2010PropOp56
 70
     1
102
RTVSPost2010Prop57
140
1.0
102
RTVSPost2010PropOp57
 70
     1
102
RTVSPropertyOp0
 70
     1
102
RTVSPropertyOp1
 70
     1
102
RTVSPropertyOp2
 70
     1
102
RTVSPropertyOp3
 70
     1
102
RTVSPropertyOp4
 70
     1
102
RTVSPropertyOp5
 70
     1
102
RTVSPropertyOp6
 70
     1
102
RTVSPropertyOp7
 70
     1
102
RTVSPropertyOp8
 70
     1
102
RTVSPropertyOp9
 70
     1
102
RTVSPropertyOp10
 70
     1
102
RTVSPropertyOp11
 70
     1
102
RTVSPropertyOp12
 70
     1
102
RTVSPropertyOp13
 70
     1
102
RTVSPropertyOp14
 70
     1
102
RTVSPropertyOp15
 70
     1
102
RTVSPropertyOp16
 70
     1
102
RTVSPropertyOp17
 70
     1
102
RTVSPropertyOp18
 70
     1
102
RTVSPropertyOp19
 70
     1
102
RTVSPropertyOp20
 70
     1
102
RTVSPropertyOp21
 70
     1
102
RTVSPropertyOp22
 70
     1
102
RTVSPropertyOp23
 70
     1
102
RTVSPropertyOp24
 70
     1
102
RTVSPropertyOp25
 70
     1
102
RTVSPropertyOp26
 70
     1
102
RTVSPropertyOp27
 70
     1
102
RTVSPropertyOp28
 70
     1
102
RTVSPropertyOp29
 70
     1
102
RTVSPropertyOp30
 70
     1
102
RTVSPropertyOp31
 70
     1
102
RTVSPropertyOp32
 70
     1
102
RTVSPropertyOp33
 70
     1
102
RTVSPropertyOp34
 70
     1
102
RTVSPropertyOp35
 70
     1
102
RTVSPropertyOp36
 70
     1
102
RTVSPropertyOp37
 70
     1
102
RTVSPropertyOp38
 70
     1
102
RTVSPropertyOp39
 70
     1
102
RTVSPropertyOp40
 70
     1
102
RTVSPropertyOp41
 70
     1
102
RTVSPropertyOp42
 70
     1
102
RTVSPropertyOp43
 70
     1
102
RTVSPropertyOp44
 70
     1
102
RTVSPropertyOp45
 70
     1
102
RTVSPropertyOp46
 70
     1
102
RTVSPropertyOp47
 70
     1
102
RTVSPropertyOp48
 70
     1
102
RTVSPropertyOp49
 70
     1
102
RTVSPropertyOp50
 70
     1
102
RTVSPropertyOp51
 70
     0
102
RTVSPropertyOp52
 70
     0
102
RTVSPropertyOp53
 70
     1
102
RTVSPropertyOp54
 70
     1
102
RTVSPropertyOp55
 70
     1
102
RTVSPropertyOp56
 70
     1
102
RTVSPropertyOp57
 70
     1
102
RTVSPropertyOp58
 70
     1
102
RTVSPropertyOp59
 70
     1
102
RTVSPropertyOp60
 70
     1
102
RTVSPropertyOp61
 70
     1
102
RTVSPropertyOp62
 70
     1
  0
XRECORD
  5
AFA
102
{ACAD_REACTORS
330
AF9
102
}
330
AF9
100
AcDbXrecord
280
     1
102
RTVSPost2010Prop28
280
     0
102
RTVSPost2010PropOp28
 70
     1
102
RTVSPost2010Prop29
280
     1
102
RTVSPost2010PropOp29
 70
     1
102
RTVSPost2010Prop30
280
     1
102
RTVSPost2010PropOp30
 70
     1
102
RTVSPost2010Prop31
280
     0
102
RTVSPost2010PropOp31
 70
     1
102
RTVSPost2010Prop32
280
     0
102
RTVSPost2010PropOp32
 70
     1
102
RTVSPost2010Prop33
280
     0
102
RTVSPost2010PropOp33
 70
     1
102
RTVSPost2010Prop34
280
     0
102
RTVSPost2010PropOp34
 70
     1
102
RTVSPost2010Prop35
280
     0
102
RTVSPost2010PropOp35
 70
     1
102
RTVSPost2010Prop36
280
     0
102
RTVSPost2010PropOp36
 70
     1
102
RTVSPost2010Prop37
 90
       50
102
RTVSPost2010PropOp37
 70
     1
102
RTVSPost2010Prop38
140
0.0
102
RTVSPost2010PropOp38
 70
     1
102
RTVSPost2010Prop39
140
1.0
102
RTVSPost2010PropOp39
 70
     1
102
RTVSPost2010Prop40
 90
        0
102
RTVSPost2010PropOp40
 70
     1
102
RTVSPost2010Prop41ColorIndex
 90
       18
102
RTVSPost2010Prop41ColorRGB
 90
        0
102
RTVSPost2010PropOp41
 70
     1
102
RTVSPost2010Prop42
 90
       50
102
RTVSPost2010PropOp42
 70
     1
102
RTVSPost2010Prop43
 90
        3
102
RTVSPost2010PropOp43
 70
     1
102
RTVSPost2010Prop44ColorIndex
 90
        5
102
RTVSPost2010Prop44ColorRGB
 90
      255
102
RTVSPost2010PropOp44
 70
     1
102
RTVSPost2010Prop45
280
     0
102
RTVSPost2010PropOp45
 70
     1
102
RTVSPost2010Prop46
 90
       50
102
RTVSPost2010PropOp46
 70
     1
102
RTVSPost2010Prop47
 90
       50
102
RTVSPost2010PropOp47
 70
     1
102
RTVSPost2010Prop48
 90
       50
102
RTVSPost2010PropOp48
 70
     1
102
RTVSPost2010Prop49
280
     0
102
RTVSPost2010PropOp49
 70
     1
102
RTVSPost2010Prop50
 90
       50
102
RTVSPost2010PropOp50
 70
     1
102
RTVSPost2010Prop51ColorIndex
 90
      256
102
RTVSPost2010Prop51ColorRGB
 90
-16777216
102
RTVSPost2010PropOp51
 70
     0
102
RTVSPost2010Prop52
140
1.0
102
RTVSPost2010PropOp52
 70
     0
102
RTVSPost2010Prop53
 90
        2
102
RTVSPost2010PropOp53
 70
     1
102
RTVSPost2010Prop54
  1
strokes_ogs.tif
102
RTVSPost2010PropOp54
 70
     1
102
RTVSPost2010Prop55
280
     0
102
RTVSPost2010PropOp55
 70
     1
102
RTVSPost2010Prop56
140
1.0
102
RTVSPost2010PropOp56
 70
     1
102
RTVSPost2010Prop57
140
1.0
102
RTVSPost2010PropOp57
 70
     1
102
RTVSPropertyOp0
 70
     1
102
RTVSPropertyOp1
 70
     1
102
RTVSPropertyOp2
 70
     1
102
RTVSPropertyOp3
 70
     1
102
RTVSPropertyOp4
 70
     1
102
RTVSPropertyOp5
 70
     1
102
RTVSPropertyOp6
 70
     1
102
RTVSPropertyOp7
 70
     1
102
RTVSPropertyOp8
 70
     1
102
RTVSPropertyOp9
 70
     1
102
RTVSPropertyOp10
 70
     1
102
RTVSPropertyOp11
 70
     1
102
RTVSPropertyOp12
 70
     1
102
RTVSPropertyOp13
 70
     1
102
RTVSPropertyOp14
 70
     1
102
RTVSPropertyOp15
 70
     1
102
RTVSPropertyOp16
 70
     1
102
RTVSPropertyOp17
 70
     1
102
RTVSPropertyOp18
 70
     1
102
RTVSPropertyOp19
 70
     1
102
RTVSPropertyOp20
 70
     1
102
RTVSPropertyOp21
 70
     1
102
RTVSPropertyOp22
 70
     1
102
RTVSPropertyOp23
 70
     1
102
RTVSPropertyOp24
 70
     1
102
RTVSPropertyOp25
 70
     1
102
RTVSPropertyOp26
 70
     1
102
RTVSPropertyOp27
 70
     1
102
RTVSPropertyOp28
 70
     1
102
RTVSPropertyOp29
 70
     1
102
RTVSPropertyOp30
 70
     1
102
RTVSPropertyOp31
 70
     1
102
RTVSPropertyOp32
 70
     1
102
RTVSPropertyOp33
 70
     1
102
RTVSPropertyOp34
 70
     1
102
RTVSPropertyOp35
 70
     1
102
RTVSPropertyOp36
 70
     1
102
RTVSPropertyOp37
 70
     1
102
RTVSPropertyOp38
 70
     1
102
RTVSPropertyOp39
 70
     1
102
RTVSPropertyOp40
 70
     1
102
RTVSPropertyOp41
 70
     1
102
RTVSPropertyOp42
 70
     1
102
RTVSPropertyOp43
 70
     1
102
RTVSPropertyOp44
 70
     1
102
RTVSPropertyOp45
 70
     1
102
RTVSPropertyOp46
 70
     1
102
RTVSPropertyOp47
 70
     1
102
RTVSPropertyOp48
 70
     1
102
RTVSPropertyOp49
 70
     1
102
RTVSPropertyOp50
 70
     1
102
RTVSPropertyOp51
 70
     0
102
RTVSPropertyOp52
 70
     0
102
RTVSPropertyOp53
 70
     1
102
RTVSPropertyOp54
 70
     1
102
RTVSPropertyOp55
 70
     1
102
RTVSPropertyOp56
 70
     1
102
RTVSPropertyOp57
 70
     1
102
RTVSPropertyOp58
 70
     1
102
RTVSPropertyOp59
 70
     1
102
RTVSPropertyOp60
 70
     1
102
RTVSPropertyOp61
 70
     1
102
RTVSPropertyOp62
 70
     1
  0
XRECORD
  5
B12
102
{ACAD_REACTORS
330
B11
102
}
330
B11
100
AcDbXrecord
280
     1
102
RTVSPost2010Prop28
280
     0
102
RTVSPost2010PropOp28
 70
     1
102
RTVSPost2010Prop29
280
     1
102
RTVSPost2010PropOp29
 70
     1
102
RTVSPost2010Prop30
280
     1
102
RTVSPost2010PropOp30
 70
     1
102
RTVSPost2010Prop31
280
     0
102
RTVSPost2010PropOp31
 70
     1
102
RTVSPost2010Prop32
280
     0
102
RTVSPost2010PropOp32
 70
     1
102
RTVSPost2010Prop33
280
     0
102
RTVSPost2010PropOp33
 70
     1
102
RTVSPost2010Prop34
280
     0
102
RTVSPost2010PropOp34
 70
     1
102
RTVSPost2010Prop35
280
     0
102
RTVSPost2010PropOp35
 70
     1
102
RTVSPost2010Prop36
280
     0
102
RTVSPost2010PropOp36
 70
     1
102
RTVSPost2010Prop37
 90
       50
102
RTVSPost2010PropOp37
 70
     1
102
RTVSPost2010Prop38
140
0.0
102
RTVSPost2010PropOp38
 70
     1
102
RTVSPost2010Prop39
140
1.0
102
RTVSPost2010PropOp39
 70
     1
102
RTVSPost2010Prop40
 90
        0
102
RTVSPost2010PropOp40
 70
     1
102
RTVSPost2010Prop41ColorIndex
 90
       18
102
RTVSPost2010Prop41ColorRGB
 90
        0
102
RTVSPost2010PropOp41
 70
     1
102
RTVSPost2010Prop42
 90
       50
102
RTVSPost2010PropOp42
 70
     1
102
RTVSPost2010Prop43
 90
        3
102
RTVSPost2010PropOp43
 70
     1
102
RTVSPost2010Prop44ColorIndex
 90
        5
102
RTVSPost2010Prop44ColorRGB
 90
      255
102
RTVSPost2010PropOp44
 70
     1
102
RTVSPost2010Prop45
280
     0
102
RTVSPost2010PropOp45
 70
     1
102
RTVSPost2010Prop46
 90
       50
102
RTVSPost2010PropOp46
 70
     1
102
RTVSPost2010Prop47
 90
       50
102
RTVSPost2010PropOp47
 70
     1
102
RTVSPost2010Prop48
 90
       50
102
RTVSPost2010PropOp48
 70
     1
102
RTVSPost2010Prop49
280
     0
102
RTVSPost2010PropOp49
 70
     1
102
RTVSPost2010Prop50
 90
       50
102
RTVSPost2010PropOp50
 70
     1
102
RTVSPost2010Prop51ColorIndex
 90
      256
102
RTVSPost2010Prop51ColorRGB
 90
-16777216
102
RTVSPost2010PropOp51
 70
     0
102
RTVSPost2010Prop52
140
1.0
102
RTVSPost2010PropOp52
 70
     0
102
RTVSPost2010Prop53
 90
        2
102
RTVSPost2010PropOp53
 70
     1
102
RTVSPost2010Prop54
  1
strokes_ogs.tif
102
RTVSPost2010PropOp54
 70
     1
102
RTVSPost2010Prop55
280
     0
102
RTVSPost2010PropOp55
 70
     1
102
RTVSPost2010Prop56
140
1.0
102
RTVSPost2010PropOp56
 70
     1
102
RTVSPost2010Prop57
140
1.0
102
RTVSPost2010PropOp57
 70
     1
102
RTVSPropertyOp0
 70
     1
102
RTVSPropertyOp1
 70
     1
102
RTVSPropertyOp2
 70
     1
102
RTVSPropertyOp3
 70
     1
102
RTVSPropertyOp4
 70
     1
102
RTVSPropertyOp5
 70
     1
102
RTVSPropertyOp6
 70
     1
102
RTVSPropertyOp7
 70
     1
102
RTVSPropertyOp8
 70
     1
102
RTVSPropertyOp9
 70
     1
102
RTVSPropertyOp10
 70
     1
102
RTVSPropertyOp11
 70
     1
102
RTVSPropertyOp12
 70
     1
102
RTVSPropertyOp13
 70
     1
102
RTVSPropertyOp14
 70
     1
102
RTVSPropertyOp15
 70
     1
102
RTVSPropertyOp16
 70
     1
102
RTVSPropertyOp17
 70
     1
102
RTVSPropertyOp18
 70
     1
102
RTVSPropertyOp19
 70
     1
102
RTVSPropertyOp20
 70
     1
102
RTVSPropertyOp21
 70
     1
102
RTVSPropertyOp22
 70
     1
102
RTVSPropertyOp23
 70
     1
102
RTVSPropertyOp24
 70
     1
102
RTVSPropertyOp25
 70
     1
102
RTVSPropertyOp26
 70
     1
102
RTVSPropertyOp27
 70
     1
102
RTVSPropertyOp28
 70
     1
102
RTVSPropertyOp29
 70
     1
102
RTVSPropertyOp30
 70
     1
102
RTVSPropertyOp31
 70
     1
102
RTVSPropertyOp32
 70
     1
102
RTVSPropertyOp33
 70
     1
102
RTVSPropertyOp34
 70
     1
102
RTVSPropertyOp35
 70
     1
102
RTVSPropertyOp36
 70
     1
102
RTVSPropertyOp37
 70
     1
102
RTVSPropertyOp38
 70
     1
102
RTVSPropertyOp39
 70
     1
102
RTVSPropertyOp40
 70
     1
102
RTVSPropertyOp41
 70
     1
102
RTVSPropertyOp42
 70
     1
102
RTVSPropertyOp43
 70
     1
102
RTVSPropertyOp44
 70
     1
102
RTVSPropertyOp45
 70
     1
102
RTVSPropertyOp46
 70
     1
102
RTVSPropertyOp47
 70
     1
102
RTVSPropertyOp48
 70
     1
102
RTVSPropertyOp49
 70
     1
102
RTVSPropertyOp50
 70
     1
102
RTVSPropertyOp51
 70
     0
102
RTVSPropertyOp52
 70
     0
102
RTVSPropertyOp53
 70
     1
102
RTVSPropertyOp54
 70
     1
102
RTVSPropertyOp55
 70
     1
102
RTVSPropertyOp56
 70
     1
102
RTVSPropertyOp57
 70
     1
102
RTVSPropertyOp58
 70
     1
102
RTVSPropertyOp59
 70
     1
102
RTVSPropertyOp60
 70
     1
102
RTVSPropertyOp61
 70
     1
102
RTVSPropertyOp62
 70
     1
  0
ENDSEC
  0
EOF
